<?xml version="1.0" standalone="no"?>
<!DOCTYPE svg PUBLIC "-//W3C//DTD SVG 1.1//EN" "http://www.w3.org/Graphics/SVG/1.1/DTD/svg11.dtd" >
<svg xmlns="http://www.w3.org/2000/svg">
<metadata>Generated by IcoMoon</metadata>
<defs>
<font id="entypo" horiz-adv-x="1024">
<font-face units-per-em="1024" ascent="960" descent="-64" />
<missing-glyph horiz-adv-x="1024" />
<glyph unicode="&#x20;" d="" horiz-adv-x="512" />
<glyph unicode="&#xe600;" d="M1024 652.338h-144.825c-100.325 68.312-223.175 102.862-367.175 102.862s-266.85-34.55-367.175-102.862h-144.825c21.912-21.522 42.35-68.6 50.85-104.4-31.538-42.559-50.85-94.678-50.85-151.6 0-141.15 114.85-256 256-256 67.925 0 129.375 27.047 175.25 70.381l80.75-121.119 80.75 121.119c45.875-43.334 107.325-70.381 175.25-70.381 141.15 0 256 114.85 256 256 0 56.922-19.313 109.041-50.85 151.6 8.5 35.8 28.938 82.878 50.85 104.4zM256 222.256c-95.975 0-174.075 78.103-174.075 174.081s78.1 174.081 174.075 174.081 174.075-78.103 174.075-174.081-78.1-174.081-174.075-174.081zM512 396.338c0 123.766-88.325 227.241-205.237 250.869 61.612 20.734 129.925 31.194 205.237 31.194s143.625-10.459 205.237-31.194c-116.912-23.628-205.237-127.103-205.237-250.869zM768 222.256c-95.975 0-174.075 78.103-174.075 174.081s78.1 174.081 174.075 174.081 174.075-78.103 174.075-174.081-78.1-174.081-174.075-174.081zM256 506.419c-60.675 0-110.075-49.381-110.075-110.081s49.4-110.081 110.075-110.081 110.075 49.381 110.075 110.081-49.4 110.081-110.075 110.081zM256 363.519c-18.375 0-33.275 14.9-33.275 33.281s14.9 33.281 33.275 33.281 33.275-14.9 33.275-33.281-14.9-33.281-33.275-33.281zM768 506.419c-60.675 0-110.075-49.381-110.075-110.081s49.4-110.081 110.075-110.081 110.075 49.381 110.075 110.081-49.4 110.081-110.075 110.081zM768 363.519c-18.375 0-33.275 14.9-33.275 33.281s14.9 33.281 33.275 33.281 33.275-14.9 33.275-33.281-14.9-33.281-33.275-33.281z" />
<glyph unicode="&#xe800;" d="M390.144 929.28q0-43.008 47.104-99.328t92.16-102.4 62.464-121.856-39.936-157.696q-20.48-34.816-26.624-16.384-2.048 6.144 0 16.384 10.24 18.432 6.144 57.344t-13.312 79.872-44.032 74.752-83.968 41.984v-548.864q2.048-49.152-37.888-97.28t-107.52-72.704q-75.776-28.672-146.432-8.192t-91.136 77.824 20.48 117.76 118.784 87.040q88.064 30.72 161.792 4.096v667.648h81.92z" horiz-adv-x="596" />
<glyph unicode="&#xe801;" d="M210.944 820.736l546.816 118.784v-720.896q2.048-43.008-30.72-82.944t-88.064-60.416q-65.536-24.576-112.64-8.192t-63.488 65.536q-18.432 49.152 7.168 99.328t87.040 74.752q53.248 20.48 108.544 10.24v385.024l-362.496-83.968v-501.76q0-43.008-32.768-82.944t-88.064-60.416q-65.536-22.528-111.616-7.168t-62.464 64.512q-18.432 49.152 6.144 99.328t86.016 74.752q55.296 20.48 110.592 10.24v606.208z" horiz-adv-x="758" />
<glyph unicode="&#xe802;" d="M614.4 908.8q43.008 0 72.704-29.696t29.696-72.704v-716.8q0-40.96-29.696-71.68t-72.704-30.72h-512q-40.96 0-71.68 30.72t-30.72 71.68v716.8q0 43.008 30.72 72.704t71.68 29.696h512zM501.76 421.376q32.768 45.056 23.552 94.208t-33.792 81.92-50.176 67.584-25.6 55.296h-61.44v-376.832q-43.008 16.384-92.16-2.048-43.008-14.336-65.536-49.152t-12.288-65.536q12.288-32.768 54.272-46.080t87.040 1.024q90.112 30.72 90.112 100.352v268.288q36.864-6.144 56.32-32.768t18.432-53.248-3.072-43.008q-4.096-10.24 2.048-10.24 4.096 0 12.288 10.24z" horiz-adv-x="717" />
<glyph unicode="&#xe803;" d="M790.528 169.472q30.72-34.816 6.144-63.488l-47.104-47.104q-36.864-32.768-69.632 0l-194.56 194.56q-75.776-43.008-159.744-43.008-131.072 0-228.352 97.28t-97.28 228.352 92.16 224.256 223.232 93.184 229.376-97.28 98.304-228.352q0-90.112-47.104-165.888zM96.256 536.064q0-90.112 69.632-159.744t159.744-69.632 154.624 64.512 64.512 156.672q0 90.112-69.632 158.72t-159.744 68.608-154.624-64.512-64.512-154.624z" horiz-adv-x="808" />
<glyph unicode="&#xe804;" d="M825.344 812.544q63.488-63.488 87.040-133.12t-5.12-94.208l-137.216-137.216q-16.384-16.384-63.488-26.624t-98.304-4.096l-417.792-417.792q-18.432-18.432-58.368-6.144t-76.8 51.2q-36.864 36.864-50.176 75.776t5.12 57.344l417.792 417.792q-6.144 51.2 4.096 98.304t26.624 63.488l139.264 139.264q24.576 28.672 94.208 4.096t133.12-88.064zM366.592 394.752q32.768-32.768 81.92 14.336 47.104 47.104 14.336 83.968-14.336 14.336-38.912 10.24t-45.056-24.576-23.552-44.032 11.264-39.936zM710.656 699.904q30.72-30.72 69.632-51.2t63.488-25.6 28.672-1.024q2.048 4.096-4.096 27.648t-26.624 61.44-51.2 68.608-67.584 51.2-60.416 26.624-27.648 2.048 1.024-28.672 25.6-63.488 49.152-67.584z" horiz-adv-x="924" />
<glyph unicode="&#xe805;" d="M30.72 689.664q-32.768 18.432-28.672 40.96 2.048 14.336 26.624 14.336h866.304q38.912 0 20.48-32.768-8.192-14.336-24.576-22.528-14.336-6.144-196.608-104.448t-186.368-100.352q-16.384-10.24-47.104-10.24-28.672 0-47.104 10.24-4.096 2.048-186.368 100.352t-196.608 104.448zM901.12 587.264q20.48 10.24 20.48-10.24v-376.832q0-16.384-17.408-32.768t-33.792-16.384h-819.2q-16.384 0-33.792 16.384t-17.408 32.768v376.832q0 20.48 20.48 10.24l393.216-204.8q18.432-10.24 47.104-10.24t47.104 10.24z" horiz-adv-x="922" />
<glyph unicode="&#xe806;" d="M808.96 749.056q71.68-65.536 71.68-159.744t-71.68-161.792l-368.64-337.92-368.64 337.92q-71.68 67.584-71.68 161.792t71.68 159.744q63.488 59.392 154.624 59.392t156.672-59.392l57.344-53.248 59.392 53.248q63.488 59.392 153.6 59.392t155.648-59.392z" horiz-adv-x="881" />
<glyph unicode="&#xe807;" d="M808.96 747.008q71.68-65.536 71.68-159.744t-71.68-159.744l-368.64-337.92-368.64 337.92q-71.68 65.536-71.68 159.744t71.68 159.744q65.536 59.392 155.648 59.392t153.6-59.392l59.392-53.248 57.344 53.248q65.536 59.392 155.648 59.392t155.648-59.392zM753.664 480.768q43.008 40.96 43.008 106.496 0 67.584-38.912 102.4-38.912 38.912-104.448 38.912-53.248 0-106.496-49.152l-106.496-94.208-108.544 94.208q-49.152 49.152-104.448 49.152-65.536 0-106.496-38.912-38.912-36.864-38.912-102.4 0-67.584 45.056-106.496l313.344-292.864z" horiz-adv-x="881" />
<glyph unicode="&#xe808;" d="M450.56 898.56l122.88-344.064h327.68l-268.288-200.704 96.256-356.352-278.528 212.992-278.528-212.992 96.256 356.352-268.288 200.704h327.68z" horiz-adv-x="901" />
<glyph unicode="&#xe809;" d="M901.12 554.496l-268.288-200.704 96.256-356.352-278.528 212.992-278.528-212.992 96.256 356.352-268.288 200.704h327.68l122.88 344.064 122.88-344.064h327.68zM450.56 310.784l153.6-126.976-63.488 182.272 147.456 116.736-180.224-4.096-57.344 206.848-55.296-206.848-180.224 4.096 145.408-116.736-63.488-182.272z" horiz-adv-x="901" />
<glyph unicode="&#xe80a;" d="M753.664 220.672q208.896-73.728 208.896-124.928v-108.544h-962.56v108.544q0 51.2 208.896 124.928 96.256 34.816 131.072 70.656t34.816 97.28q0 22.528-22.528 50.176t-32.768 74.752q-2.048 12.288-9.216 18.432t-14.336 8.192-14.336 17.408-9.216 44.032q0 16.384 5.12 26.624t9.216 12.288l4.096 4.096q-8.192 51.2-12.288 90.112-4.096 55.296 41.984 114.688t160.768 59.392 161.792-59.392 40.96-114.688l-12.288-90.112q18.432-8.192 18.432-43.008-2.048-28.672-9.216-44.032t-14.336-17.408-14.336-8.192-9.216-18.432q-8.192-49.152-31.744-75.776t-23.552-49.152q0-61.44 35.84-97.28t130.048-70.656z" horiz-adv-x="963" />
<glyph unicode="&#xe80b;" d="M1024-2.56h-229.376v153.6q0 55.296-30.72 82.944t-157.696 91.136q40.96 30.72 40.96 86.016 0 16.384-13.312 33.792t-19.456 52.224q-2.048 8.192-14.336 16.384t-14.336 43.008q0 24.576 12.288 30.72-6.144 34.816-8.192 61.44-4.096 38.912 23.552 79.872t97.28 40.96 98.304-40.96 24.576-79.872l-8.192-61.44q12.288-6.144 12.288-30.72-2.048-34.816-14.336-43.008t-14.336-16.384q-6.144-34.816-19.456-52.224t-13.312-33.792q0-43.008 21.504-67.584t78.848-49.152q114.688-47.104 133.12-81.92 6.144-8.192 9.216-62.464t5.12-103.424v-49.152zM524.288 265.728q186.368-79.872 186.368-126.976v-141.312h-710.656v188.416q0 45.056 86.016 79.872 77.824 32.768 106.496 65.536t28.672 90.112q0 20.48-19.456 45.056t-25.6 69.632q-2.048 10.24-18.432 22.528t-20.48 57.344q0 14.336 3.072 23.552t7.168 13.312l4.096 2.048q-6.144 47.104-10.24 83.968-4.096 51.2 33.792 105.472t130.048 54.272 130.048-54.272 33.792-105.472l-10.24-83.968q14.336-8.192 14.336-38.912-4.096-45.056-20.48-57.344t-18.432-22.528q-6.144-45.056-25.6-69.632t-19.456-45.056q0-57.344 28.672-90.112t106.496-65.536z" />
<glyph unicode="&#xe80c;" d="M634.88 220.672q184.32-65.536 184.32-124.928v-108.544h-819.2v206.848q36.864 14.336 83.968 26.624 96.256 34.816 132.096 70.656t35.84 97.28q0 22.528-23.552 49.152t-31.744 75.776q-2.048 12.288-23.552 25.6t-25.6 62.464q0 16.384 5.12 26.624t9.216 12.288l4.096 4.096q-8.192 51.2-12.288 90.112-6.144 55.296 40.96 114.688t163.84 59.392 163.84-59.392 43.008-114.688l-14.336-90.112q18.432-8.192 18.432-43.008-2.048-28.672-9.216-44.032t-14.336-17.408-14.336-8.192-9.216-18.432q-10.24-47.104-33.792-74.752t-23.552-50.176q0-61.44 36.864-97.28t133.12-70.656zM870.4 499.2h153.6v-102.4h-153.6v-153.6h-102.4v153.6h-153.6v102.4h153.6v153.6h102.4v-153.6z" />
<glyph unicode="&#xe80d;" d="M1003.52 704h-102.4v-102.4h102.4v-102.4h-102.4v-102.4h102.4v-102.4h-102.4v-102.4h102.4v-61.44q0-16.384-12.288-28.672t-28.672-12.288h-921.6q-16.384 0-28.672 12.288t-12.288 28.672v61.44h102.4v102.4h-102.4v102.4h102.4v102.4h-102.4v102.4h102.4v102.4h-102.4v61.44q0 18.432 12.288 29.696t28.672 11.264h921.6q16.384 0 28.672-11.264t12.288-29.696v-61.44zM389.12 294.4l256 153.6-256 153.6v-307.2z" horiz-adv-x="1004" />
<glyph unicode="&#xe80e;" d="M876.544 620.032h-102.4l-126.976 153.6-219.136-153.6h-184.32q-53.248 0-92.16-39.936t-38.912-93.184v-163.84l-110.592 303.104q-10.24 38.912 22.528 53.248l696.32 253.952q36.864 10.24 51.2-24.576zM985.088 527.872q16.384 0 27.648-12.288t11.264-28.672v-483.328q0-16.384-11.264-28.672t-27.648-12.288h-741.376q-16.384 0-27.648 12.288t-11.264 28.672v483.328q0 16.384 11.264 28.672t27.648 12.288h741.376zM927.744 65.024v165.888l-73.728 163.84-169.984-61.44-133.12-135.168-141.312 174.080-94.208-219.136v-88.064h612.352z" />
<glyph unicode="&#xe80f;" d="M512 550.4q65.536 0 109.568-45.056t44.032-108.544-45.056-108.544-108.544-45.056-108.544 45.056-45.056 108.544 45.056 108.544 108.544 45.056zM921.6 704q43.008 0 72.704-29.696t29.696-72.704v-460.8q0-40.96-29.696-71.68t-72.704-30.72h-819.2q-40.96 0-71.68 30.72t-30.72 71.68v460.8q0 43.008 30.72 72.704t71.68 29.696h122.88q28.672 0 40.96 30.72l30.72 94.208q10.24 28.672 40.96 28.672h348.16q30.72 0 40.96-28.672l30.72-94.208q12.288-30.72 40.96-30.72h122.88zM512 140.8q106.496 0 181.248 74.752t74.752 181.248-74.752 181.248-181.248 74.752-181.248-74.752-74.752-181.248 74.752-181.248 181.248-74.752zM886.784 529.92q14.336 0 24.576 11.264t10.24 25.6-10.24 24.576-24.576 10.24q-36.864 0-36.864-34.816 0-16.384 11.264-26.624t25.6-10.24z" />
<glyph unicode="&#xe810;" d="M174.080 755.2q81.92 0 81.92-81.92v-92.16q0-81.92-81.92-81.92h-92.16q-81.92 0-81.92 81.92v92.16q0 81.92 81.92 81.92h92.16zM532.48 755.2q81.92 0 81.92-81.92v-92.16q0-81.92-81.92-81.92h-92.16q-81.92 0-81.92 81.92v92.16q0 81.92 81.92 81.92h92.16zM174.080 396.8q81.92 0 81.92-81.92v-92.16q0-81.92-81.92-81.92h-92.16q-81.92 0-81.92 81.92v92.16q0 81.92 81.92 81.92h92.16zM532.48 396.8q81.92 0 81.92-81.92v-92.16q0-81.92-81.92-81.92h-92.16q-81.92 0-81.92 81.92v92.16q0 81.92 81.92 81.92h92.16z" horiz-adv-x="614" />
<glyph unicode="&#xe811;" d="M665.6 499.2q22.528 0 36.864-15.36t14.336-35.84-15.36-35.84-35.84-15.36h-614.4q-20.48 0-35.84 15.36t-15.36 35.84 14.336 35.84 36.864 15.36h614.4zM51.2 601.6q-20.48 0-35.84 15.36t-15.36 35.84 14.336 35.84 36.864 15.36h614.4q22.528 0 36.864-15.36t14.336-35.84-15.36-35.84-35.84-15.36h-614.4zM665.6 294.4q22.528 0 36.864-15.36t14.336-35.84-15.36-35.84-35.84-15.36h-614.4q-20.48 0-35.84 15.36t-15.36 35.84 14.336 35.84 36.864 15.36h614.4z" horiz-adv-x="717" />
<glyph unicode="&#xe812;" d="M254.976 89.6q-34.816 0-57.344 28.672l-184.32 241.664q-16.384 24.576-12.288 53.248t26.624 47.104 52.224 14.336 48.128-28.672l120.832-157.696 303.104 485.376q16.384 24.576 44.032 30.72t54.272-8.192q24.576-16.384 30.72-44.032t-8.192-54.272l-358.4-573.44q-20.48-32.768-57.344-32.768z" horiz-adv-x="683" />
<glyph unicode="&#xe813;" d="M462.848 288.256q18.432-18.432 18.432-44.032t-18.432-44.032q-18.432-16.384-44.032-16.384t-44.032 16.384l-135.168 155.648-135.168-155.648q-18.432-16.384-44.032-16.384t-44.032 16.384q-16.384 18.432-16.384 44.032t16.384 44.032l141.312 159.744-141.312 161.792q-16.384 18.432-16.384 44.032t16.384 44.032q18.432 16.384 44.032 16.384t44.032-16.384l135.168-155.648 135.168 155.648q18.432 16.384 44.032 16.384t44.032-16.384q18.432-18.432 18.432-44.032t-18.432-44.032l-141.312-161.792z" horiz-adv-x="481" />
<glyph unicode="&#xe814;" d="M430.080 878.080q178.176 0 304.128-125.952t125.952-304.128-125.952-304.128-304.128-125.952-304.128 125.952-125.952 304.128 125.952 304.128 304.128 125.952zM518.144 448l157.696 157.696-88.064 88.064-157.696-155.648-155.648 155.648-90.112-88.064 157.696-157.696-157.696-155.648 90.112-88.064 155.648 155.648 157.696-155.648 88.064 88.064z" horiz-adv-x="860" />
<glyph unicode="&#xe815;" d="M716.8 857.6q43.008 0 72.704-29.696t29.696-72.704v-614.4q0-40.96-29.696-71.68t-72.704-30.72h-614.4q-40.96 0-71.68 30.72t-30.72 71.68v614.4q0 43.008 30.72 72.704t71.68 29.696h614.4zM567.296 204.288l88.064 88.064-157.696 155.648 157.696 157.696-88.064 88.064-157.696-155.648-155.648 155.648-90.112-88.064 157.696-157.696-157.696-155.648 90.112-88.064 155.648 155.648z" horiz-adv-x="819" />
<glyph unicode="&#xe816;" d="M563.2 499.2q30.72 0 30.72-51.2t-30.72-51.2h-215.040v-215.040q0-30.72-51.2-30.72t-51.2 30.72v215.040h-215.040q-30.72 0-30.72 51.2t30.72 51.2h215.040v215.040q0 30.72 51.2 30.72t51.2-30.72v-215.040h215.040z" horiz-adv-x="594" />
<glyph unicode="&#xe817;" d="M430.080 878.080q178.176 0 304.128-125.952t125.952-304.128-125.952-304.128-304.128-125.952-304.128 125.952-125.952 304.128 125.952 304.128 304.128 125.952zM483.328 396.8h204.8v104.448h-204.8v206.848h-104.448v-206.848h-206.848v-104.448h206.848v-206.848h104.448v206.848z" horiz-adv-x="860" />
<glyph unicode="&#xe818;" d="M716.8 857.6q43.008 0 72.704-29.696t29.696-72.704v-614.4q0-40.96-29.696-71.68t-72.704-30.72h-614.4q-40.96 0-71.68 30.72t-30.72 71.68v614.4q0 43.008 30.72 72.704t71.68 29.696h614.4zM665.6 396.8v102.4h-204.8v204.8h-102.4v-204.8h-204.8v-102.4h204.8v-204.8h102.4v204.8h204.8z" horiz-adv-x="819" />
<glyph unicode="&#xe819;" d="M563.2 499.2q30.72 0 30.72-51.2t-30.72-51.2h-532.48q-30.72 0-30.72 51.2t30.72 51.2h532.48z" horiz-adv-x="594" />
<glyph unicode="&#xe81a;" d="M430.080 878.080q178.176 0 304.128-125.952t125.952-304.128-125.952-304.128-304.128-125.952-304.128 125.952-125.952 304.128 125.952 304.128 304.128 125.952zM688.128 501.248h-516.096v-104.448h516.096v104.448z" horiz-adv-x="860" />
<glyph unicode="&#xe81b;" d="M716.8 857.6q43.008 0 72.704-29.696t29.696-72.704v-614.4q0-40.96-29.696-71.68t-72.704-30.72h-614.4q-40.96 0-71.68 30.72t-30.72 71.68v614.4q0 43.008 30.72 72.704t71.68 29.696h614.4zM665.6 396.8v102.4h-512v-102.4h512z" horiz-adv-x="819" />
<glyph unicode="&#xe81c;" d="M505.856 847.36q88.064-63.488 88.064-188.416 0-65.536-43.008-126.976-12.288-20.48-90.112-81.92l-47.104-30.72q-40.96-34.816-49.152-61.44-6.144-16.384-8.192-45.056 0-14.336-16.384-14.336h-131.072q-16.384 0-16.384 12.288 4.096 100.352 28.672 126.976 16.384 22.528 49.152 49.152t57.344 43.008l24.576 14.336q22.528 16.384 34.816 34.816 28.672 45.056 28.672 71.68 0 40.96-26.624 79.872-28.672 36.864-94.208 36.864-69.632 0-96.256-45.056-28.672-43.008-28.672-94.208h-169.984q6.144 165.888 116.736 237.568 71.68 43.008 169.984 43.008 133.12 0 219.136-61.44zM284.672 196.096q45.056 0 74.752-30.72t27.648-75.776q-2.048-47.104-32.768-74.752t-75.776-25.6q-45.056 0-74.752 29.696t-27.648 76.8 32.768 74.752 75.776 25.6z" horiz-adv-x="594" />
<glyph unicode="&#xe81d;" d="M464.896 919.040q194.56 2.048 333.824-133.12t143.36-329.728q2.048-194.56-134.144-334.848t-330.752-144.384q-194.56-2.048-334.848 134.144t-142.336 330.752q-4.096 194.56 133.12 334.848t331.776 142.336zM462.848 161.28q30.72 0 50.176 19.456t19.456 48.128q2.048 30.72-17.408 50.176t-50.176 19.456h-2.048q-28.672 0-48.128-18.432t-21.504-47.104q0-30.72 19.456-50.176t48.128-21.504h2.048zM632.832 497.152q26.624 34.816 26.624 79.872 0 79.872-55.296 118.784-53.248 38.912-137.216 38.912-65.536 0-106.496-26.624-69.632-43.008-73.728-149.504v-4.096h112.64v4.096q0 26.624 16.384 55.296 16.384 24.576 55.296 24.576 40.96 0 53.248-20.48 16.384-20.48 16.384-45.056 0-18.432-16.384-40.96-8.192-12.288-20.48-20.48l-6.144-4.096q-6.144-4.096-16.384-11.264t-20.48-15.36-21.504-17.408-17.408-17.408q-14.336-20.48-18.432-79.872v-8.192h110.592v4.096q0 12.288 4.096 28.672 6.144 20.48 28.672 36.864l28.672 18.432q47.104 34.816 57.344 51.2z" horiz-adv-x="942" />
<glyph unicode="&#xe81e;" d="M360.448 960q49.152 0 75.776-27.648t26.624-70.656q0-51.2-39.936-90.112t-97.28-38.912q-49.152 0-75.776 26.624t-24.576 73.728q0 47.104 35.84 87.040t99.328 39.936zM149.504-64q-102.4 0-55.296 182.272l61.44 260.096q14.336 57.344 0 57.344-12.288 0-55.296-18.432t-73.728-38.912l-26.624 45.056q92.16 79.872 193.536 129.024t154.624 49.152q79.872 0 36.864-165.888l-71.68-272.384q-16.384-65.536 6.144-65.536 45.056 0 120.832 61.44l30.72-40.96q-86.016-88.064-179.2-135.168t-142.336-47.104z" horiz-adv-x="471" />
<glyph unicode="&#xe81f;" d="M464.896 919.040q194.56 2.048 333.824-133.12t143.36-329.728q2.048-194.56-134.144-334.848t-330.752-144.384q-194.56-2.048-334.848 134.144t-142.336 330.752q-4.096 194.56 133.12 334.848t331.776 142.336zM518.144 763.392q-43.008 0-66.56-24.576t-23.552-51.2q-2.048-28.672 15.36-45.056t50.176-16.384q38.912 0 62.464 22.528t23.552 55.296q0 59.392-61.44 59.392zM395.264 155.136q30.72 0 86.016 26.624t108.544 79.872l-18.432 24.576q-49.152-36.864-73.728-36.864-14.336 0-4.096 38.912l43.008 163.84q26.624 98.304-22.528 98.304-30.72 0-91.136-29.696t-117.76-76.8l16.384-26.624q53.248 34.816 75.776 34.816 12.288 0 0-34.816l-36.864-155.648q-26.624-106.496 34.816-106.496z" horiz-adv-x="942" />
<glyph unicode="&#xe820;" d="M768 642.56q40.96 0 71.68-29.696t30.72-72.704v-296.96q0-40.96-30.72-71.68t-71.68-30.72h-706.56v143.36h665.6v215.040h-512v-112.64l-215.040 184.32 215.040 184.32v-112.64h552.96z" horiz-adv-x="870" />
<glyph unicode="&#xe821;" d="M909.312 433.664q16.384-16.384 11.264-27.648t-27.648-11.264h-86.016v-317.44q0-14.336-1.024-21.504t-8.192-13.312-23.552-6.144h-208.896v317.44h-208.896v-317.44h-198.656q-28.672 0-35.84 10.24t-7.168 30.72v317.44h-86.016q-22.528 0-27.648 11.264t11.264 27.648l409.6 411.648q16.384 16.384 38.912 16.384t38.912-16.384z" horiz-adv-x="922" />
<glyph unicode="&#xe822;" d="M301.056 208.384q14.336 14.336 34.816 14.336t36.864-14.336q32.768-34.816 0-71.68l-43.008-40.96q-57.344-57.344-135.168-57.344-79.872 0-137.216 57.344t-57.344 135.168q0 79.872 57.344 137.216l151.552 151.552q71.68 69.632 147.456 78.848t131.072-44.032q16.384-16.384 16.384-36.864t-16.384-36.864q-36.864-32.768-71.68 0-51.2 49.152-135.168-34.816l-151.552-149.504q-26.624-26.624-26.624-65.536t26.624-63.488q26.624-26.624 64.512-26.624t64.512 26.624zM761.856 796.16q57.344-57.344 57.344-135.168 0-79.872-57.344-137.216l-161.792-161.792q-75.776-73.728-153.6-73.728-63.488 0-114.688 51.2-14.336 14.336-14.336 34.816t14.336 36.864q14.336 14.336 35.84 14.336t35.84-14.336q51.2-49.152 124.928 24.576l161.792 159.744q28.672 28.672 28.672 65.536 0 38.912-28.672 63.488-24.576 26.624-57.344 31.744t-61.44-21.504l-51.2-51.2q-16.384-14.336-36.864-14.336t-34.816 14.336q-34.816 34.816 0 71.68l51.2 51.2q55.296 55.296 130.048 52.224t132.096-62.464z" horiz-adv-x="819" />
<glyph unicode="&#xe823;" d="M249.856-53.76q-104.448 0-174.080 73.728-73.728 71.68-75.776 169.984t86.016 194.56l507.904 507.904q81.92 81.92 178.176 55.296 45.056-12.288 80.896-48.128t48.128-80.896q26.624-98.304-55.296-180.224l-485.376-485.376q-40.96-40.96-90.112-47.104-49.152-4.096-81.92 28.672-30.72 24.576-27.648 75.776t48.128 94.208l339.968 342.016q24.576 26.624 51.2 0t0-51.2l-339.968-339.968q-45.056-45.056-20.48-71.68 12.288-8.192 24.576-6.144 24.576 4.096 47.104 26.624l485.376 485.376q51.2 51.2 34.816 110.592-16.384 61.44-77.824 77.824-55.296 14.336-110.592-36.864l-505.856-505.856q-67.584-77.824-65.536-146.432t53.248-119.808q51.2-49.152 119.808-51.2t144.384 63.488l507.904 505.856q24.576 24.576 51.2 0 26.624-22.528 0-49.152l-507.904-507.904q-83.968-83.968-190.464-83.968z" horiz-adv-x="962" />
<glyph unicode="&#xe824;" d="M655.36 577.024q20.48 0 40.96-19.456t20.48-41.984v-399.36q0-49.152-49.152-67.584l-61.44-18.432q-43.008-16.384-98.304-16.384h-296.96q-57.344 0-100.352 16.384l-61.44 18.432q-49.152 18.432-49.152 67.584v399.36q0 22.528 15.36 41.984t35.84 19.456h102.4v71.68q0 112.64 52.224 174.080t152.576 61.44 152.576-61.44 52.224-174.080v-71.68h92.16zM256 669.184v-92.16h204.8v92.16q0 53.248-27.648 82.944t-74.752 29.696-74.752-29.696-27.648-82.944z" horiz-adv-x="717" />
<glyph unicode="&#xe825;" d="M655.36 550.4q20.48 0 40.96-20.48t20.48-40.96v-399.36q0-20.48-14.336-39.936t-34.816-25.6l-61.44-20.48q-53.248-16.384-98.304-16.384h-296.96q-47.104 0-100.352 16.384l-61.44 20.48q-20.48 6.144-34.816 25.6t-14.336 39.936v399.36q0 22.528 15.36 41.984t35.84 19.456h409.6v143.36q0 112.64-102.4 112.64t-102.4-112.64v-40.96h-102.4v20.48q0 112.64 52.224 174.080t152.576 61.44q204.8 0 204.8-235.52v-122.88h92.16z" horiz-adv-x="717" />
<glyph unicode="&#xe826;" d="M512 734.72q94.208 0 181.248-25.6t144.384-63.488 101.376-78.848 64.512-72.704 20.48-46.080-20.48-45.056-64.512-72.704-101.376-79.872-144.384-63.488-181.248-25.6-181.248 25.6-144.384 63.488-101.376 79.872-64.512 72.704-20.48 45.056 20.48 46.080 64.512 72.704 101.376 78.848 144.384 63.488 181.248 25.6zM512 228.864q94.208 0 160.768 64.512t66.56 154.624q0 92.16-66.56 156.672t-160.768 64.512-160.768-64.512-66.56-156.672q0-90.112 66.56-154.624t160.768-64.512zM512 448q8.192-8.192 37.888-2.048t51.2 11.264 25.6-9.216q0-45.056-33.792-76.8t-80.896-31.744-79.872 31.744-32.768 76.8q0 47.104 32.768 78.848t79.872 31.744q14.336 0 10.24-23.552t-12.288-48.128 2.048-38.912z" />
<glyph unicode="&#xe827;" d="M966.656 939.52q36.864-108.544-8.192-203.776t-131.072-160.768l18.432-24.576q16.384-28.672 6.144-55.296l-49.152-161.792q-12.288-30.72-36.864-47.104l-475.136-335.872q-43.008-30.72-65.536 4.096l-215.040 311.296q-12.288 18.432-9.216 39.936t21.504 33.792l475.136 335.872q26.624 18.432 55.296 18.432h161.792q30.72 0 49.152-26.624l28.672-40.96q172.032 133.12 116.736 292.864-10.24 28.672 18.432 40.96 32.768 8.192 38.912-20.48zM745.472 460.288q40.96 32.768 34.816 81.92l-32.768-16.384q-8.192-4.096-12.288-4.096-18.432 0-28.672 18.432-12.288 30.72 16.384 40.96l24.576 14.336q-49.152 34.816-94.208 0-28.672-18.432-34.816-52.224t14.336-62.464q18.432-26.624 52.224-32.768t60.416 12.288z" horiz-adv-x="983" />
<glyph unicode="&#xe828;" d="M317.44 908.8q22.528 0 36.864-15.36t14.336-35.84v-870.4l-184.32 184.32-184.32-184.32v870.4q0 51.2 40.96 51.2h276.48z" horiz-adv-x="369" />
<glyph unicode="&#xe829;" d="M512 960q20.48 0 35.84-15.36t15.36-35.84v-870.4l-153.6 184.32v634.88q0 20.48-15.36 35.84t-35.84 15.36h-102.4q0 51.2 40.96 51.2h215.040zM256 806.4q20.48 0 35.84-15.36t15.36-35.84v-819.2l-153.6 184.32-153.6-184.32v819.2q0 51.2 40.96 51.2h215.040z" horiz-adv-x="563" />
<glyph unicode="&#xe82a;" d="M894.976 720.384q14.336 6.144 22.528-1.024t0-19.456q-98.304-141.312-167.936-218.112t-112.64-92.16-74.752-2.048-61.44 37.888-64.512 40.96-95.232-4.096-142.336-88.064l92.16-360.448h-102.4l-188.416 737.28 94.208 34.816q92.16 67.584 155.648 88.064t100.352 3.072 65.536-52.224 63.488-72.704 80.896-63.488 132.096-20.48 202.752 52.224z" horiz-adv-x="922" />
<glyph unicode="&#xe82b;" d="M595.968 581.12q2.048-6.144 59.392-13.312t110.592-24.576 53.248-48.128q0-73.728-62.464-290.816t-109.568-217.088q-147.456 0-294.912 43.008t-147.456 90.112v350.208q0 14.336 15.36 34.816t47.104 46.080 54.272 41.984 63.488 44.032 47.104 31.744q51.2 34.816 106.496 102.4t87.040 106.496 41.984 26.624q49.152-77.824 29.696-140.288t-60.416-121.856-40.96-61.44zM153.6 577.024q14.336 0 0-14.336-51.2-51.2-51.2-106.496v-325.632q0-51.2 53.248-106.496 10.24-10.24-2.048-10.24-26.624 0-56.32 8.192t-63.488 46.080-33.792 101.376v247.808q0 63.488 33.792 102.4t64.512 48.128 55.296 9.216z" horiz-adv-x="819" />
<glyph unicode="&#xe82c;" d="M223.232 312.832q-2.048 6.144-58.368 13.312t-110.592 24.576-54.272 48.128q0 73.728 63.488 291.84t108.544 218.112q147.456 0 294.912-44.032t147.456-91.136v-350.208q0-10.24-8.192-24.576t-25.6-30.72-32.768-29.696-43.008-32.768-41.984-29.696-41.984-28.672l-33.792-22.528q-51.2-34.816-106.496-102.4t-87.040-106.496-41.984-26.624q-49.152 77.824-29.696 140.288t60.416 121.856 40.96 61.44zM665.6 316.928q-12.288 0 2.048 14.336 49.152 51.2 49.152 106.496v325.632q0 51.2-53.248 106.496-10.24 10.24 2.048 10.24 26.624 0 56.32-8.192t63.488-46.080 33.792-101.376v-247.808q0-49.152-18.432-82.944t-46.080-49.152-49.152-21.504-39.936-6.144z" horiz-adv-x="819" />
<glyph unicode="&#xe82d;" d="M991.232 292.352q18.432-10.24 27.648-32.768t3.072-40.96l-28.672-157.696q-4.096-20.48-22.528-33.792t-40.96-13.312h-835.584q-22.528 0-40.96 13.312t-22.528 33.792l-28.672 157.696q-10.24 49.152 32.768 73.728l161.792 110.592h100.352l-174.080-133.12h182.272q8.192 0 12.288-8.192l40.96-112.64h307.2l40.96 112.64q8.192 8.192 12.288 8.192h182.272l-174.080 133.12h100.352zM778.24 622.080l-266.24-249.856-266.24 249.856h169.984v262.144h194.56v-262.144h167.936z" />
<glyph unicode="&#xe82e;" d="M512 884.224l266.24-249.856h-167.936v-262.144h-194.56v262.144h-169.984zM991.232 292.352q18.432-10.24 27.648-32.768t3.072-40.96l-28.672-157.696q-4.096-20.48-22.528-33.792t-40.96-13.312h-835.584q-22.528 0-40.96 13.312t-22.528 33.792l-28.672 157.696q-10.24 49.152 32.768 73.728l161.792 110.592h100.352l-174.080-133.12h182.272q8.192 0 12.288-8.192l40.96-112.64h307.2l40.96 112.64q8.192 8.192 12.288 8.192h182.272l-174.080 133.12h100.352z" />
<glyph unicode="&#xe82f;" d="M778.24 595.456q102.4 0 174.080-69.632t71.68-169.984-71.68-169.984-174.080-69.632h-194.56v194.56h108.544l-180.224 235.52-178.176-235.52h106.496v-194.56h-253.952q-75.776 0-131.072 53.248t-55.296 126.976q0 75.776 54.272 129.024t132.096 53.248q14.336 0 20.48-2.048-2.048 12.288-2.048 38.912 0 110.592 79.872 188.416t192.512 77.824q92.16 0 163.84-53.248t96.256-137.216q28.672 4.096 40.96 4.096z" />
<glyph unicode="&#xe830;" d="M921.6 99.84q-88.064 155.648-212.992 201.728t-337.92 46.080v-223.232l-370.688 342.016 370.688 329.728v-196.608q92.16 0 172.032-27.648t134.144-71.68 98.304-97.28 70.656-106.496 45.056-97.28 24.576-70.656z" horiz-adv-x="922" />
<glyph unicode="&#xe831;" d="M370.688 658.944l-217.088-192.512 217.088-200.704v-141.312l-370.688 342.016 370.688 329.728v-137.216zM626.688 599.552q106.496 0 186.368-51.2t117.76-124.928 61.44-147.456 27.648-124.928l4.096-51.2q-88.064 157.696-172.032 202.752t-225.28 45.056v-223.232l-370.688 342.016 370.688 329.728v-196.608z" />
<glyph unicode="&#xe832;" d="M552.96 347.648q-215.040 0-339.968-46.080t-212.992-201.728q4.096 20.48 13.312 54.272t51.2 119.808 98.304 151.552 159.744 119.808 230.4 54.272v196.608l368.64-329.728-368.64-342.016v223.232z" horiz-adv-x="922" />
<glyph unicode="&#xe833;" d="M149.504 785.92q149.504 0 188.416-149.504 38.912-143.36-40.96-309.248-81.92-172.032-229.376-208.896-32.768-8.192-67.584-8.192v71.68q114.688 0 186.368 110.592 55.296 88.064 26.624 149.504-16.384 36.864-63.488 36.864-61.44 0-105.472 45.056t-44.032 108.544 44.032 108.544 105.472 45.056zM579.584 785.92q149.504 0 188.416-149.504 38.912-143.36-40.96-309.248-81.92-172.032-229.376-208.896-32.768-8.192-67.584-8.192v71.68q114.688 0 186.368 110.592 55.296 88.064 26.624 149.504-16.384 36.864-63.488 36.864-61.44 0-105.472 45.056t-44.032 108.544 44.032 108.544 105.472 45.056z" horiz-adv-x="780" />
<glyph unicode="&#xe834;" d="M389.12 740.864q16.384-14.336 16.384-32.768t-16.384-30.72l-251.904-229.376 251.904-231.424q16.384-12.288 16.384-30.72t-16.384-32.768q-30.72-30.72-61.44 0l-327.68 294.912 327.68 292.864q30.72 30.72 61.44 0zM698.368 740.864l325.632-292.864-325.632-294.912q-32.768-30.72-63.488 0-32.768 32.768 0 63.488l253.952 231.424-253.952 229.376q-32.768 30.72 0 63.488 30.72 30.72 63.488 0z" />
<glyph unicode="&#xe835;" d="M768 151.040v57.344l102.4 83.968v-192.512q0-20.48-15.36-35.84t-35.84-15.36h-768q-20.48 0-35.84 15.36t-15.36 35.84v563.2q0 22.528 14.336 36.864t36.864 14.336h294.912q-32.768-24.576-60.416-50.176t-39.936-39.936l-10.24-12.288h-133.12v-460.8h665.6zM684.032 507.392q-169.984 0-247.808-41.984t-163.84-185.344q0 8.192 1.024 22.528t9.216 57.344 22.528 80.896 45.056 84.992 71.68 80.896 109.568 57.344 152.576 23.552v159.744l339.968-256-339.968-266.24v182.272z" />
<glyph unicode="&#xe836;" d="M735.232 785.92q32.768-32.768 48.128-65.536t15.36-49.152v-16.384l-258.048-258.048-296.96-294.912-243.712-53.248 51.2 245.76 296.96 294.912 258.048 258.048q55.296 12.288 129.024-61.44zM229.376 130.56l24.576 24.576q-2.048 45.056-53.248 96.256-22.528 22.528-46.080 35.84t-35.84 13.312l-14.336 2.048-22.528-24.576-18.432-81.92q28.672-16.384 47.104-34.816 24.576-24.576 36.864-49.152z" horiz-adv-x="799" />
<glyph unicode="&#xe837;" d="M61.44-51.712q-6.144-20.48-26.624-8.192-18.432 8.192-16.384 34.816 4.096 102.4 51.2 231.424-102.4 157.696-53.248 323.584 10.24-32.768 32.768-79.872t45.056-81.92 32.768-30.72q8.192 4.096 0 84.992t-11.264 169.984 25.6 160.768q22.528 45.056 81.92 96.256t106.496 71.68q-24.576-47.104-33.792-96.256t-4.096-79.872 21.504-32.768q12.288 0 86.016 122.88t108.544 124.928q47.104 4.096 116.736-29.696t83.968-66.56q12.288-24.576 0-80.896t-40.96-84.992q-45.056-45.056-149.504-63.488t-116.736-24.576q-16.384-10.24 12.288-34.816 55.296-49.152 180.224-20.48-57.344-81.92-139.264-116.736t-135.168-38.912-55.296-10.24q-4.096-24.576 50.176-55.296t103.424-14.336q-30.72-57.344-64.512-86.016t-55.296-35.84-77.824-11.264-87.040-8.192z" horiz-adv-x="715" />
<glyph unicode="&#xe838;" d="M67.584 628.224q-26.624 0-22.528 22.528 4.096 10.24 12.288 14.336 2.048 0 50.176 17.408t95.232 32.768 59.392 15.36h45.056v153.6h389.12v-153.6h47.104q12.288 0 58.368-15.36t94.208-32.768 50.176-17.408q18.432-8.192 12.288-26.624-4.096-10.24-20.48-10.24h-870.4zM948.224 570.88q20.48 0 37.888-19.456t17.408-41.984v-178.176q0-22.528-17.408-41.984t-37.888-19.456h-102.4l45.056-256h-778.24l45.056 256h-100.352q-20.48 0-38.912 19.456t-18.432 41.984v178.176q0 22.528 18.432 41.984t38.912 19.456h890.88zM215.040 116.224h573.44l-71.68 331.776h-430.080z" horiz-adv-x="1004" />
<glyph unicode="&#xe839;" d="M256 284.16h278.528l131.072-143.36h-458.752q-43.008 0-72.704 30.72t-29.696 71.68v309.248h-104.448l180.224 202.752 178.176-202.752h-102.4v-268.288zM921.6 345.6h102.4l-178.176-204.8-180.224 204.8h104.448v266.24h-280.576l-131.072 143.36h460.8q40.96 0 71.68-29.696t30.72-72.704v-307.2z" />
<glyph unicode="&#xe83a;" d="M952.32 755.2q28.672 0 50.176-21.504t21.504-50.176v-471.040q0-30.72-21.504-51.2t-50.176-20.48h-880.64q-28.672 0-50.176 20.48t-21.504 51.2v471.040q0 28.672 21.504 50.176t50.176 21.504h880.64zM563.2 652.8v-102.4h102.4v102.4h-102.4zM716.8 499.2h-102.4v-102.4h102.4v102.4zM409.6 652.8v-102.4h102.4v102.4h-102.4zM563.2 499.2h-102.4v-102.4h102.4v102.4zM256 652.8v-102.4h102.4v102.4h-102.4zM409.6 499.2h-102.4v-102.4h102.4v102.4zM102.4 652.8v-102.4h102.4v102.4h-102.4zM256 499.2h-102.4v-102.4h102.4v102.4zM204.8 243.2v102.4h-102.4v-102.4h102.4zM768 243.2v102.4h-512v-102.4h512zM921.6 243.2v102.4h-102.4v-102.4h102.4zM768 396.8h102.4v102.4h-102.4v-102.4zM921.6 550.4v102.4h-204.8v-102.4h204.8z" />
<glyph unicode="&#xe83b;" d="M716.8 806.4q43.008 0 72.704-29.696t29.696-72.704v-358.4q0-40.96-29.696-71.68t-72.704-30.72h-204.8v-153.6l-204.8 153.6h-204.8q-40.96 0-71.68 30.72t-30.72 71.68v358.4q0 43.008 30.72 72.704t71.68 29.696h614.4z" horiz-adv-x="819" />
<glyph unicode="&#xe83c;" d="M296.96 335.36h358.4q2.048 0 6.144 2.048h4.096v-94.208q0-40.96-29.696-71.68t-72.704-30.72h-256l-153.6-153.6v153.6h-51.2q-40.96 0-71.68 30.72t-30.72 71.68v307.2q0 43.008 30.72 72.704t71.68 29.696h194.56v-317.44zM921.6 908.8q43.008 0 72.704-29.696t29.696-72.704v-307.2q0-40.96-29.696-71.68t-72.704-30.72h-51.2v-153.6l-153.6 153.6h-358.4v409.6q0 43.008 30.72 72.704t71.68 29.696h460.8z" />
<glyph unicode="&#xe83d;" d="M647.168 525.824q16.384-34.816 40.96-53.248t46.080-22.528 45.056-23.552 35.84-56.32q22.528-63.488-75.776-164.864t-258.048-160.768q-167.936-59.392-304.128-46.080t-158.72 76.8q-20.48 55.296 12.288 113.664t18.432 113.664q-57.344 196.608-48.128 307.2t115.712 196.608q26.624 22.528 29.696 52.224t29.696 39.936q24.576 8.192 47.104-12.288t57.344-18.432q135.168 2.048 202.752-67.584t163.84-274.432zM456.704 112.128q90.112 32.768 162.816 87.040t102.4 93.184 25.6 51.2q-8.192 22.528-50.176 33.792t-126.976 1.024-191.488-49.152q-104.448-38.912-177.152-89.088t-96.256-86.016-17.408-54.272q4.096-12.288 51.2-22.528t137.216-4.096 180.224 38.912zM393.216 290.304q8.192 2.048 21.504 7.168t17.408 7.168l2.048-2.048q14.336-40.96-17.408-84.992t-91.136-64.512q-98.304-36.864-155.648 14.336 79.872 69.632 223.232 122.88z" horiz-adv-x="819" />
<glyph unicode="&#xe83e;" d="M979.968 65.024q10.24-16.384 0-34.816-10.24-16.384-30.72-16.384h-913.408q-18.432 0-28.672 16.384-12.288 18.432-2.048 34.816l456.704 800.768q8.192 18.432 30.72 18.432t30.72-18.432zM549.888 116.224v102.4h-112.64v-102.4h112.64zM549.888 294.4v307.2h-112.64v-307.2h112.64z" horiz-adv-x="985" />
<glyph unicode="&#xe83f;" d="M906.24 329.216q20.48-16.384 16.384-33.792t-28.672-23.552l-79.872-22.528q-24.576-6.144-40.96-28.672t-14.336-49.152l4.096-83.968q2.048-24.576-14.336-34.816t-38.912 0l-88.064 45.056q-22.528 12.288-48.128 4.096t-35.84-30.72l-47.104-90.112q-12.288-22.528-29.696-23.552t-33.792 19.456l-51.2 79.872q-34.816 49.152-90.112 20.48l-124.928-71.68q-22.528-14.336-32.768-6.144t-2.048 32.768l55.296 167.936q8.192 24.576-4.096 45.056t-36.864 22.528l-108.544 12.288q-24.576 4.096-29.696 18.432t15.36 30.72l88.064 77.824q20.48 16.384 20.48 41.984t-20.48 41.984l-88.064 77.824q-20.48 16.384-16.384 33.792t28.672 23.552l79.872 22.528q24.576 6.144 41.984 28.672t15.36 49.152l-6.144 83.968q0 26.624 15.36 36.864t37.888 0l81.92-38.912q24.576-10.24 50.176-2.048t37.888 30.72l47.104 81.92q12.288 22.528 30.72 21.504t30.72-23.552l51.2-88.064q12.288-22.528 35.84-29.696t46.080 7.168l139.264 86.016q22.528 14.336 30.72 6.144t0-32.768l-61.44-174.080q-10.24-22.528 2.048-41.984t38.912-21.504l116.736-12.288q26.624-2.048 30.72-16.384t-16.384-30.72l-88.064-77.824q-18.432-16.384-18.432-41.984t18.432-41.984zM513.024 235.008v106.496h-102.4v-106.496h102.4zM513.024 398.848v266.24h-102.4v-266.24h102.4z" horiz-adv-x="923" />
<glyph unicode="&#xe840;" d="M921.6 857.6q43.008 0 72.704-29.696t29.696-72.704v-614.4q0-40.96-29.696-71.68t-72.704-30.72h-819.2q-40.96 0-71.68 30.72t-30.72 71.68v614.4q0 43.008 30.72 72.704t71.68 29.696h819.2zM921.6 140.8v614.4h-819.2v-614.4h819.2zM460.8 341.504v-92.16h-256v92.16h256zM460.8 495.104v-92.16h-256v92.16h256zM460.8 648.704v-92.16h-256v92.16h256zM815.104 321.024l4.096-71.68h-256q0 71.68 6.144 71.68 86.016 22.528 86.016 67.584 0 16.384-27.648 57.344t-27.648 90.112q0 112.64 92.16 112.64t92.16-112.64q0-49.152-28.672-90.112t-28.672-57.344q0-20.48 21.504-36.864t44.032-22.528z" />
<glyph unicode="&#xe841;" d="M436.224 908.8q20.48 0 20.48-20.48v-880.64q0-20.48-20.48-20.48h-47.104q-20.48 0-20.48 20.48v450.56h-180.224q-16.384 0-28.672 6.144-12.288 2.048-26.624 12.288l-122.88 83.968q-10.24 6.144-10.24 16.384t10.24 16.384l122.88 83.968q14.336 10.24 26.624 12.288 8.192 4.096 28.672 4.096h180.224v194.56q0 20.48 20.48 20.48h47.104zM1013.76 695.808q10.24-6.144 10.24-16.384t-10.24-16.384l-120.832-83.968q-22.528-12.288-26.624-12.288-14.336-6.144-28.672-6.144h-309.248l-40.96 235.52h350.208q18.432 0 28.672-4.096t26.624-12.288z" />
<glyph unicode="&#xe842;" d="M256 857.6q106.496 0 181.248-74.752t74.752-181.248q0-108.544-63.488-248.832t-129.024-228.352l-63.488-86.016q-10.24 12.288-27.648 35.84t-61.44 91.136-77.824 133.12-61.44 150.528-27.648 152.576q0 106.496 74.752 181.248t181.248 74.752zM256 460.288q57.344 0 98.304 40.96t40.96 98.304-40.96 97.28-98.304 39.936-97.28-39.936-39.936-97.28 39.936-98.304 97.28-40.96z" horiz-adv-x="512" />
<glyph unicode="&#xe843;" d="M1007.616 704q16.384-10.24 16.384-30.72v-598.016q0-20.48-16.384-30.72-8.192-6.144-16.384-6.144t-18.432 6.144l-221.184 139.264-221.184-139.264q-18.432-10.24-34.816 0l-223.232 139.264-221.184-139.264q-16.384-10.24-34.816 0-16.384 10.24-16.384 30.72v598.016q0 20.48 16.384 30.72l239.616 149.504q18.432 10.24 34.816 0l221.184-139.264 223.232 139.264q16.384 10.24 32.768 0zM239.616 243.2v518.144l-172.032-106.496v-518.144zM479.232 136.704v518.144l-172.032 106.496v-518.144zM718.848 243.2v518.144l-174.080-106.496v-518.144zM956.416 136.704v518.144l-172.032 106.496v-518.144z" />
<glyph unicode="&#xe844;" d="M868.352 876.032q8.192-8.192 11.264-16.384t-2.048-22.528-10.24-26.624-19.456-39.936-24.576-50.176q-55.296-114.688-150.528-292.864t-160.768-299.008l-67.584-120.832-55.296 389.12-389.12 57.344q452.608 251.904 712.704 376.832 20.48 10.24 49.152 25.6t39.936 20.48 25.6 9.216 23.552 1.024 17.408-11.264zM774.144 777.728l-311.296-286.72 28.672-239.616z" horiz-adv-x="881" />
<glyph unicode="&#xe845;" d="M485.376 939.52q202.752 2.048 348.16-139.264t149.504-344.064q2.048-204.8-139.264-350.208t-346.112-149.504q-202.752-2.048-349.184 140.288t-148.48 345.088q-4.096 204.8 138.24 350.208t347.136 147.456zM497.664 60.928q159.744 2.048 272.384 116.736t110.592 276.48-117.76 273.408-275.456 109.568q-161.792-2.048-273.408-116.736t-109.568-276.48 116.736-273.408 276.48-109.568zM258.048 218.624q4.096 26.624 12.288 67.584t41.984 131.072 78.848 135.168 128 77.824 144.384 43.008l61.44 10.24q-4.096-26.624-12.288-67.584t-41.984-131.072-78.848-135.168q-43.008-43.008-126.976-75.776t-145.408-43.008zM442.368 501.248q-22.528-20.48-22.528-49.152t22.528-51.2q20.48-22.528 50.176-22.528t50.176 22.528q53.248 53.248 90.112 190.464-139.264-36.864-190.464-90.112z" horiz-adv-x="983" />
<glyph unicode="&#xe846;" d="M348.16 867.84q155.648 0 254.976-41.984t93.184-89.088l-73.728-608.256q-2.048-14.336-34.816-36.864t-99.328-43.008-140.288-20.48-139.264 20.48-99.328 43.008-35.84 36.864l-73.728 608.256q-4.096 28.672 36.864 58.368t123.904 51.2 187.392 21.504zM348.16 646.656q73.728 0 140.288 15.36t100.352 33.792 33.792 30.72-33.792 29.696-100.352 32.768-140.288 15.36-140.288-15.36-100.352-32.768-33.792-29.696 33.792-30.72 100.352-33.792 140.288-15.36z" horiz-adv-x="697" />
<glyph unicode="&#xe847;" d="M51.2 558.592q124.928-71.68 337.92-71.68t337.92 71.68l-55.296-497.664q-2.048-14.336-35.84-36.864t-102.4-44.032-144.384-21.504-143.36 21.504-102.4 44.032-36.864 36.864zM550.912 865.792q96.256-18.432 161.792-56.32t65.536-72.704v-10.24q0-59.392-114.688-101.376t-274.432-41.984-274.432 41.984-114.688 101.376v10.24q0 34.816 65.536 72.704t161.792 56.32l43.008 49.152q22.528 26.624 71.68 26.624h94.208q53.248 0 71.68-26.624zM495.616 751.104h86.016q-94.208 112.64-106.496 129.024-14.336 16.384-32.768 16.384h-104.448q-22.528 0-32.768-16.384l-108.544-129.024h86.016l65.536 67.584h83.968z" horiz-adv-x="778" />
<glyph unicode="&#xe848;" d="M614.4 908.8q43.008 0 72.704-29.696t29.696-72.704v-716.8q0-40.96-29.696-71.68t-72.704-30.72h-512q-40.96 0-71.68 30.72t-30.72 71.68v716.8q0 43.008 30.72 72.704t71.68 29.696h512zM614.4 89.6v716.8h-512v-716.8h512z" horiz-adv-x="717" />
<glyph unicode="&#xe849;" d="M993.28 581.12q38.912-10.24 30.72-47.104l-153.6-569.344q-4.096-16.384-18.432-23.552t-30.72-3.072l-415.744 112.64q-16.384 4.096-24.576 18.432t-4.096 28.672l24.576 94.208-184.32-49.152q-40.96-10.24-51.2 26.624l-163.84 616.448q-10.24 36.864 28.672 49.152l464.896 124.928q16.384 4.096 30.72-3.072t18.432-23.552l67.584-249.856zM83.968 775.68l147.456-555.008 401.408 108.544-147.456 552.96zM802.816 15.872l135.168 503.808-305.152 83.968 77.824-288.768q10.24-34.816-28.672-47.104l-200.704-53.248-26.624-104.448z" horiz-adv-x="1025" />
<glyph unicode="&#xe84a;" d="M0 704q0 43.008 30.72 72.704t71.68 29.696h819.2q43.008 0 72.704-29.696t29.696-72.704v-512q0-40.96-29.696-71.68t-72.704-30.72h-819.2q-40.96 0-71.68 30.72t-30.72 71.68v512zM921.6 704h-819.2v-512h819.2v512z" />
<glyph unicode="&#xe84b;" d="M217.088 404.992v92.16h286.72v-92.16h-286.72zM614.4 908.8q43.008 0 72.704-29.696t29.696-72.704v-716.8q0-40.96-29.696-71.68t-72.704-30.72h-512q-40.96 0-71.68 30.72t-30.72 71.68v716.8q0 43.008 30.72 72.704t71.68 29.696h512zM614.4 89.6v716.8h-512v-716.8h512zM501.76 695.808v-90.112h-286.72v90.112h286.72zM501.76 294.4v-90.112h-286.72v90.112h286.72z" horiz-adv-x="717" />
<glyph unicode="&#xe84c;" d="M614.4 908.8q43.008 0 72.704-29.696t29.696-72.704v-716.8q0-40.96-29.696-71.68t-72.704-30.72h-512q-40.96 0-71.68 30.72t-30.72 71.68v716.8q0 43.008 30.72 72.704t71.68 29.696h512zM143.36 695.808v-90.112h430.080v90.112h-430.080zM573.44 204.288v90.112h-430.080v-90.112h430.080zM573.44 404.992v92.16h-428.032v-92.16h428.032z" horiz-adv-x="717" />
<glyph unicode="&#xe84d;" d="M716.8 908.8q43.008 0 72.704-29.696t29.696-72.704v-716.8q0-40.96-29.696-71.68t-72.704-30.72h-614.4q-40.96 0-71.68 30.72t-30.72 71.68v716.8q0 43.008 30.72 72.704t71.68 29.696h614.4zM716.8 89.6v716.8h-614.4v-716.8h614.4zM460.8 345.6v-51.2h-256v51.2h256zM614.4 550.4v-51.2h-204.8v51.2h204.8zM409.6 601.6v102.4h204.8v-102.4h-204.8zM358.4 704v-204.8h-153.6v204.8h153.6zM307.2 448v-51.2h-102.4v51.2h102.4zM358.4 396.8v51.2h256v-51.2h-256zM614.4 243.2v-51.2h-409.6v51.2h409.6zM512 294.4v51.2h102.4v-51.2h-102.4z" horiz-adv-x="819" />
<glyph unicode="&#xe84e;" d="M348.16 333.312v-69.632l-204.8 81.92v69.632zM348.16 546.304v-69.632l-204.8 81.92v69.632zM899.072 900.608q22.528-12.288 22.528-43.008v-655.36q0-34.816-32.768-47.104l-407.552-163.84q-8.192-2.048-10.24-2.048t-5.12-1.024-5.12-1.024-5.12 1.024-5.12 1.024l-10.24 2.048-407.552 163.84q-32.768 12.288-32.768 47.104v655.36q0 30.72 22.528 43.008 22.528 16.384 47.104 6.144l391.168-157.696 391.168 157.696q24.576 10.24 47.104-6.144zM409.6 93.696v573.44l-327.68 131.072v-573.44zM839.68 224.768v573.44l-327.68-131.072v-573.44zM778.24 415.232v-69.632l-204.8-81.92v69.632zM778.24 628.224v-69.632l-204.8-81.92v69.632z" horiz-adv-x="922" />
<glyph unicode="&#xe84f;" d="M698.368 697.856q18.432-8.192 18.432-28.672v-575.488q0-14.336-12.288-25.6t-28.672-11.264q-47.104 0-47.104 36.864v534.528q0 12.288-12.288 18.432l-413.696 221.184q-32.768 10.24-69.632-10.24-45.056-20.48-57.344-45.056l417.792-233.472q18.432-8.192 18.432-28.672v-563.2q0-22.528-18.432-28.672-6.144-4.096-16.384-4.096-14.336 0-20.48 4.096-8.192 6.144-206.848 130.048t-217.088 134.144q-26.624 18.432-26.624 34.816l-6.144 536.576q0 28.672 14.336 53.248 28.672 47.104 104.448 78.848t118.784 9.216z" horiz-adv-x="717" />
<glyph unicode="&#xe850;" d="M976.896 601.6q32.768 0 40.96-12.288t6.144-36.864l-43.008-462.848q-2.048-24.576-12.288-37.888t-43.008-13.312h-825.344q-53.248 0-57.344 51.2l-43.008 462.848q-2.048 24.576 6.144 36.864t40.96 12.288h929.792zM942.080 714.24l10.24-40.96h-866.304l14.336 135.168q4.096 20.48 20.48 34.816t36.864 14.336h167.936q53.248 0 88.064-34.816l30.72-30.72q32.768-36.864 88.064-36.864h348.16q20.48 0 38.912-12.288t22.528-28.672z" horiz-adv-x="1025" />
<glyph unicode="&#xe851;" d="M860.16 704v-51.2h-712.704v51.2q0 22.528 13.312 35.84t25.6 15.36h622.592q6.144 0 14.336-1.024t22.528-14.336 14.336-35.84zM708.608 857.6q6.144 0 14.336-1.024t22.528-14.336 14.336-35.84h-509.952q0 22.528 13.312 35.84t25.6 15.36h419.84zM962.56 652.8q34.816-32.768 38.912-47.104 6.144-18.432 0-55.296l-77.824-460.8q-4.096-22.528-20.48-35.84t-28.672-15.36h-727.040q-53.248 0-61.44 51.2-6.144 26.624-39.936 228.352t-39.936 232.448q-10.24 22.528-3.072 45.056t10.24 26.624 21.504 20.48l40.96 40.96v-81.92h856.064v81.92zM708.608 376.32v102.4h-71.68v-81.92h-266.24v81.92h-69.632v-102.4q0-51.2 49.152-51.2h307.2q22.528 0 35.84 12.288t13.312 24.576z" horiz-adv-x="1005" />
<glyph unicode="&#xe852;" d="M890.88 857.6q12.288 0 21.504-9.216t9.216-21.504v-122.88h-921.6v122.88q0 12.288 9.216 21.504t21.504 9.216h860.16zM51.2 110.080v542.72h819.2v-542.72q0-30.72-21.504-51.2t-50.176-20.48h-675.84q-28.672 0-50.176 20.48t-21.504 51.2zM307.2 550.4v-102.4h307.2v102.4h-307.2z" horiz-adv-x="922" />
<glyph unicode="&#xe853;" d="M0 837.12q321.536 0 549.888-228.352t228.352-549.888h-120.832q0 272.384-192.512 463.872t-464.896 191.488v122.88zM0 593.408q223.232 0 379.904-156.672t156.672-377.856h-120.832q0 169.984-121.856 291.84t-293.888 121.856v120.832zM116.736 290.304q47.104 0 81.92-33.792t34.816-82.944q0-47.104-34.816-80.896t-81.92-33.792-81.92 33.792-34.816 80.896q0 49.152 34.816 82.944t81.92 33.792z" horiz-adv-x="778" />
<glyph unicode="&#xe854;" d="M472.064 386.56q165.888 165.888 120.832 210.944l-8.192 8.192q-30.72 30.72-41.984 49.152t-4.096 55.296 50.176 90.112q20.48 24.576 37.888 39.936t35.84 16.384 30.72 1.024 29.696-13.312 24.576-18.432 26.624-25.6 21.504-22.528q49.152-49.152-6.144-198.656t-208.896-301.056q-153.6-153.6-302.080-209.92t-197.632-7.168q-2.048 2.048-23.552 22.528t-25.6 25.6-18.432 24.576-13.312 31.744 2.048 30.72 15.36 35.84 38.912 37.888q43.008 34.816 71.68 48.128t55.296 2.048 35.84-18.432 39.936-37.888q45.056-45.056 212.992 122.88z" horiz-adv-x="819" />
<glyph unicode="&#xe855;" d="M778.24 448q0-73.728 81.92-124.928-12.288-40.96-34.816-83.968-71.68 18.432-139.264-45.056-55.296-59.392-34.816-139.264-40.96-20.48-86.016-36.864-47.104 83.968-135.168 83.968t-135.168-83.968q-45.056 16.384-86.016 36.864 20.48 81.92-34.816 139.264-55.296 55.296-139.264 34.816-14.336 26.624-34.816 83.968 83.968 53.248 83.968 135.168 0 73.728-83.968 126.976 20.48 57.344 34.816 83.968 75.776-18.432 139.264 45.056 55.296 57.344 34.816 139.264 43.008 22.528 86.016 34.816 47.104-81.92 135.168-81.92t135.168 81.92q43.008-12.288 86.016-34.816-20.48-79.872 34.816-139.264 67.584-63.488 139.264-45.056 22.528-43.008 34.816-83.968-81.92-51.2-81.92-126.976zM430.080 261.632q77.824 0 132.096 54.272t54.272 132.096-54.272 133.12-132.096 55.296-132.096-55.296-54.272-133.12 54.272-132.096 132.096-54.272z" horiz-adv-x="860" />
<glyph unicode="&#xe856;" d="M158.72 607.744q-8.192-8.192-11.264-22.528t-3.072-25.6-2.048-11.264q-2.048-2.048-17.408-15.36t-19.456-17.408q-16.384-14.336-28.672 4.096l-71.68 77.824q-10.24 12.288 2.048 24.576 2.048 2.048 18.432 14.336t20.48 16.384q6.144 6.144 27.648 6.144t37.888 14.336q14.336 14.336 18.432 38.912t10.24 30.72q2.048 0 9.216 7.168t26.624 22.528 41.984 31.744q137.216 92.16 190.464 98.304 124.928 0 151.552-2.048 12.288 0-8.192-8.192-122.88-53.248-155.648-77.824-81.92-57.344-36.864-116.736 34.816-47.104 38.912-49.152 8.192-8.192-2.048-14.336-2.048-2.048-38.912-35.84t-38.912-35.84q-14.336-8.192-18.432-4.096-43.008 49.152-72.704 61.44t-68.608-12.288zM451.584 581.12l419.84-487.424q18.432-22.528-2.048-38.912l-49.152-43.008q-22.528-14.336-38.912 4.096l-423.936 483.328q-8.192 8.192 0 20.48l73.728 63.488q12.288 8.192 20.48-2.048zM1018.88 787.968q16.384-106.496-16.384-169.984-51.2-90.112-157.696-63.488-57.344 12.288-102.4-32.768l-83.968-79.872-69.632 79.872 69.632 71.68q24.576 24.576 31.744 54.272t6.144 66.56 5.12 59.392q12.288 57.344 143.36 114.688 12.288 6.144 18.432-3.072t2.048-15.36q-12.288-12.288-47.104-81.92-14.336-10.24-12.288-35.84t40.96-54.272q59.392-40.96 98.304 22.528 6.144 12.288 26.624 41.984t22.528 33.792q4.096 10.24 13.312 9.216t11.264-17.408zM140.288 87.552l260.096 253.952 77.824-88.064-251.904-247.808q-20.48-20.48-38.912-4.096l-47.104 47.104q-22.528 18.432 0 38.912z" />
<glyph unicode="&#xe857;" d="M665.6 294.4q63.488 0 108.544-44.032t45.056-109.568q0-63.488-45.056-108.544t-108.544-45.056-108.544 45.056-45.056 108.544q0 6.144 1.024 14.336t1.024 12.288l-266.24 159.744q-43.008-32.768-94.208-32.768-63.488 0-108.544 45.056t-45.056 108.544 45.056 108.544 108.544 45.056q55.296 0 94.208-30.72l266.24 159.744q0 4.096-1.024 12.288t-1.024 12.288q0 63.488 45.056 108.544t108.544 45.056 108.544-44.032 45.056-109.568q0-63.488-45.056-108.544t-108.544-45.056q-53.248 0-92.16 32.768l-268.288-159.744q2.048-8.192 2.048-26.624 0-16.384-2.048-24.576l268.288-159.744q36.864 30.72 92.16 30.72z" horiz-adv-x="819" />
<glyph unicode="&#xe858;" d="M348.16 448q0 69.632 48.128 116.736t115.712 47.104 115.712-47.104 48.128-116.736q0-67.584-48.128-115.712t-115.712-48.128-115.712 48.128-48.128 115.712zM231.424 509.44q-14.336-61.44-67.584-61.44h-163.84v122.88h120.832q40.96 126.976 148.48 206.848t242.688 79.872q167.936 0 290.816-118.784 16.384-18.432 16.384-44.032t-16.384-44.032q-18.432-16.384-44.032-16.384t-44.032 16.384q-79.872 83.968-202.752 83.968-102.4 0-180.224-63.488t-100.352-161.792zM860.16 448h163.84v-122.88h-120.832q-40.96-126.976-147.456-206.848t-243.712-79.872q-167.936 0-288.768 120.832-18.432 18.432-18.432 44.032t18.432 41.984q16.384 18.432 41.984 18.432t44.032-18.432q83.968-83.968 202.752-83.968 102.4 0 180.224 64.512t100.352 160.768q12.288 61.44 67.584 61.44z" />
<glyph unicode="&#xe859;" d="M153.6 89.6q0 40.96 30.72 71.68t71.68 30.72q43.008 0 72.704-30.72t29.696-71.68q0-43.008-29.696-72.704t-72.704-29.696q-40.96 0-71.68 29.696t-30.72 72.704zM665.6 89.6q0 40.96 30.72 71.68t71.68 30.72q43.008 0 72.704-30.72t29.696-71.68q0-43.008-29.696-72.704t-72.704-29.696q-40.96 0-71.68 29.696t-30.72 72.704zM335.872 331.264q-36.864-10.24-34.816-23.552t45.056-13.312h575.488v-77.824q0-20.48-20.48-20.48h-669.696q-20.48 0-20.48 20.48v77.824l-10.24 47.104-100.352 464.896h-100.352v81.92q0 20.48 20.48 20.48h159.744q20.48 0 20.48-20.48v-88.064h720.896v-280.576q0-22.528-18.432-26.624z" horiz-adv-x="922" />
<glyph unicode="&#xe85a;" d="M855.040 773.632q28.672-26.624 24.576-61.44l-100.352-663.552q-8.192-30.72-38.912-30.72h-600.064q-28.672 0-40.96 30.72-96.256 634.88-98.304 663.552-4.096 34.816 22.528 61.44 6.144 6.144 55.296 44.032t57.344 44.032q18.432 16.384 57.344 16.384h491.52q38.912 0 57.344-16.384 79.872-59.392 112.64-88.064zM439.296 327.168q57.344 0 100.352 34.816t64.512 91.136 30.72 91.136 13.312 67.584h-94.208q-38.912-192.512-114.688-192.512t-114.688 192.512h-94.208q47.104-284.672 208.896-284.672zM78.848 704h720.896l-112.64 118.784h-495.616z" horiz-adv-x="880" />
<glyph unicode="&#xe85b;" d="M819.2 806.4q43.008 0 72.704-29.696t29.696-72.704v-614.4q0-40.96-29.696-71.68t-72.704-30.72h-716.8q-40.96 0-71.68 30.72t-30.72 71.68v614.4q0 43.008 30.72 72.704t71.68 29.696h47.104v-102.4h163.84v102.4h296.96v-102.4h163.84v102.4h45.056zM819.2 89.6v409.6h-716.8v-409.6h716.8zM266.24 908.8v-174.080h-71.68v174.080h71.68zM727.040 908.8v-174.080h-71.68v174.080h71.68z" horiz-adv-x="922" />
<glyph unicode="&#xe85c;" d="M819.2 908.8q43.008 0 72.704-29.696t29.696-72.704v-716.8q0-40.96-29.696-71.68t-72.704-30.72h-460.8q-40.96 0-70.656 30.72t-29.696 71.68v102.4h100.352v-102.4h460.8v716.8h-460.8v-153.6h-100.352v153.6q0 43.008 29.696 72.704t70.656 29.696h460.8zM460.8 222.72v122.88h-460.8v153.6h460.8v122.88l204.8-198.656z" horiz-adv-x="922" />
<glyph unicode="&#xe85d;" d="M514.048 89.6v102.4h100.352v-102.4q0-40.96-29.696-71.68t-72.704-30.72h-409.6q-40.96 0-71.68 30.72t-30.72 71.68v716.8q0 43.008 30.72 72.704t71.68 29.696h409.6q43.008 0 72.704-29.696t29.696-72.704v-153.6h-100.352v153.6h-411.648v-716.8h411.648zM921.6 423.424l-202.752-200.704v122.88h-460.8v153.6h460.8v122.88z" horiz-adv-x="922" />
<glyph unicode="&#xe85e;" d="M634.88 589.312q20.48 0 20.48-20.48v-141.312q0-94.208-70.656-167.936t-205.824-86.016v-135.168h133.12q20.48 0 20.48-20.48v-61.44q0-20.48-20.48-20.48h-368.64q-20.48 0-20.48 20.48v61.44q0 20.48 20.48 20.48h133.12v135.168q-135.168 12.288-205.824 86.016t-70.656 167.936v141.312q0 20.48 20.48 20.48h30.72q20.48 0 20.48-20.48v-141.312q0-67.584 60.416-125.952t195.584-58.368 195.584 58.368 60.416 125.952v141.312q0 20.48 20.48 20.48h30.72zM327.68 345.6q-81.92 0-117.76 25.6t-35.84 56.32v161.792h307.2v-161.792q0-30.72-35.84-56.32t-117.76-25.6zM481.28 878.080v-217.088h-307.2v217.088q0 30.72 35.84 56.32t117.76 25.6 117.76-25.6 35.84-56.32z" horiz-adv-x="655" />
<glyph unicode="&#xe85f;" d="M888.832 886.272q16.384-16.384 16.384-36.864t-16.384-36.864l-800.768-800.768q-18.432-14.336-34.816-14.336-18.432 0-36.864 14.336-16.384 14.336-16.384 36.864t16.384 36.864l800.768 800.768q34.816 32.768 71.68 0zM667.648 491.008l51.2 51.2q75.776-94.208 103.424-176.128t-7.168-118.784q-24.576-24.576-76.8-58.368t-134.144-72.704-164.864-46.080-168.96 23.552l284.672 282.624q45.056-32.768 90.112-55.296t68.608-25.6 33.792 1.024q6.144 10.24 2.048 34.816t-26.624 69.632-55.296 90.112zM385.024 554.496l-276.48-276.48q-40.96 135.168 28.672 289.792t135.168 220.16q34.816 32.768 107.52 11.264t162.816-87.040l-53.248-51.2q-59.392 38.912-107.52 54.272t-58.368 5.12q-4.096-8.192-2.048-28.672t19.456-59.392 44.032-77.824z" horiz-adv-x="905" />
<glyph unicode="&#xe860;" d="M180.224 691.712q43.008 43.008 152.576-5.12t222.208-160.768 160.768-222.208 5.12-152.576q-28.672-28.672-94.208-68.608t-159.744-79.872-198.656-29.696-180.224 86.016-86.016 180.224 29.696 198.656 79.872 159.744 68.608 94.208zM655.36 200.192q8.192 10.24-3.072 50.176t-50.176 103.424-98.304 120.832q-57.344 59.392-120.832 98.304t-103.424 50.176-50.176 3.072q-8.192-10.24 3.072-50.176t50.176-103.424 96.256-122.88q59.392-57.344 122.88-96.256t103.424-50.176 50.176-3.072zM661.504 603.648q-18.432 0-34.816 16.384-16.384 14.336-16.384 35.84t16.384 35.84l96.256 98.304q36.864 32.768 73.728 0 32.768-36.864 0-73.728l-98.304-96.256q-16.384-16.384-36.864-16.384zM477.184 730.624q-18.432 10.24-23.552 30.72t5.12 38.912l55.296 98.304q26.624 45.056 69.632 20.48 18.432-10.24 23.552-30.72t-5.12-38.912l-55.296-98.304q-14.336-26.624-43.008-26.624-14.336 0-26.624 6.144zM925.696 577.024q10.24-18.432 4.096-38.912t-24.576-30.72l-98.304-55.296q-16.384-8.192-24.576-8.192-28.672 0-45.056 26.624-10.24 18.432-4.096 38.912t24.576 30.72l98.304 55.296q18.432 10.24 38.912 5.12t30.72-23.552z" horiz-adv-x="932" />
<glyph unicode="&#xe861;" d="M917.504 273.92q0-34.816-24.576-58.368t-57.344-23.552h-798.72q-22.528 0-31.744 5.12t-3.072 15.36 24.576 20.48l821.248 462.848q28.672 18.432 49.152 7.168t20.48-46.080v-382.976z" horiz-adv-x="918" />
<glyph unicode="&#xe862;" d="M471.040 919.040q194.56 0 332.8-138.24t138.24-332.8-138.24-332.8-332.8-138.24-332.8 138.24-138.24 332.8 138.24 332.8 332.8 138.24zM471.040 79.36q153.6 0 261.12 108.544t107.52 260.096q0 153.6-107.52 261.12t-261.12 107.52q-151.552 0-260.096-107.52t-108.544-261.12q0-151.552 108.544-260.096t260.096-108.544zM507.904 714.24v-249.856l153.6-153.6-51.2-51.2-174.080 174.080v280.576h71.68z" horiz-adv-x="942" />
<glyph unicode="&#xe863;" d="M573.44 726.528q0-45.056-49.152-98.304t-99.328-101.376-50.176-78.848 50.176-77.824 99.328-99.328 49.152-99.328v-120.832q0-34.816-88.064-74.752t-198.656-39.936-198.656 39.936-88.064 74.752v120.832q0 47.104 49.152 99.328t99.328 99.328 50.176 77.824-50.176 78.848-99.328 101.376-49.152 98.304v120.832q0 32.768 89.088 72.704t197.632 39.936 197.632-39.936 89.088-72.704v-120.832zM79.872 841.216l-18.432-14.336q-4.096-8.192 4.096-14.336 94.208-53.248 221.184-53.248 135.168 0 225.28 51.2 14.336 10.24-16.384 30.72-98.304 55.296-206.848 55.296-122.88 0-208.896-55.296zM313.344 448q0 18.432 4.096 33.792t18.432 33.792 20.48 25.6 31.744 31.744 29.696 28.672q94.208 94.208 94.208 124.928l2.048 51.2q-102.4-55.296-227.328-55.296t-227.328 55.296l4.096-51.2q0-32.768 92.16-124.928 6.144-6.144 22.528-21.504t23.552-22.528l19.456-19.456t17.408-21.504 11.264-20.48 9.216-23.552 3.072-24.576q0-10.24-1.024-19.456t-6.144-18.432-8.192-16.384-11.264-17.408l-12.288-15.36t-15.36-16.384-16.384-15.36-18.432-16.384-17.408-16.384q-92.16-92.16-92.16-124.928v-67.584q8.192 4.096 67.584 23.552t94.208 44.032 34.816 59.392q0 30.72 26.624 30.72t26.624-30.72q0-34.816 33.792-59.392t96.256-44.032 68.608-23.552v67.584q0 30.72-94.208 124.928-4.096 4.096-21.504 20.48t-22.528 21.504-18.432 19.456-18.432 22.528-12.288 20.48-9.216 23.552-2.048 23.552z" horiz-adv-x="573" />
<glyph unicode="&#xe864;" d="M214.016-23.040v106.496h288.768v-106.496q-71.68-43.008-145.408-40.96-71.68-2.048-143.36 40.96zM496.64 144.896h-276.48q0 73.728-36.864 143.36t-79.872 115.712-75.776 114.688-26.624 142.336q8.192 122.88 96.256 210.944t260.096 88.064q174.080 0 261.12-88.064t97.28-210.944q4.096-61.44-16.384-115.712t-53.248-98.304-66.56-87.040-58.368-98.304-24.576-116.736zM109.568 652.8q-4.096-4.096 0-20.48t2.048-20.48 5.12-19.456 6.144-18.432 8.192-18.432 11.264-19.456 13.312-19.456 14.336-19.456 15.36-21.504 16.384-23.552q90.112-124.928 114.688-217.088h83.968q24.576 96.256 114.688 217.088 4.096 6.144 25.6 35.84t25.6 36.864 17.408 29.696 16.384 33.792 6.144 28.672 1.024 35.84q-16.384 200.704-249.856 200.704-231.424 0-247.808-200.704z" horiz-adv-x="717" />
<glyph unicode="&#xe865;" d="M358.4 611.84q69.632 0 116.736-48.128t47.104-115.712q0-69.632-47.104-116.736t-116.736-47.104q-67.584 0-115.712 47.104t-48.128 116.736q0 67.584 48.128 115.712t115.712 48.128zM358.4 341.504q45.056 0 74.752 30.72t29.696 75.776q0 43.008-29.696 73.728t-74.752 30.72q-43.008 0-73.728-30.72t-30.72-73.728q0-45.056 30.72-75.776t73.728-30.72zM51.2 488.96q20.48 0 35.84-12.288t15.36-28.672q0-40.96-51.2-40.96t-51.2 40.96q0 16.384 15.36 28.672t35.84 12.288zM610.304 697.856q28.672-28.672-8.192-65.536-14.336-14.336-33.792-16.384t-29.696 10.24q-12.288 12.288-10.24 31.744t16.384 33.792q36.864 34.816 65.536 6.144zM665.6 488.96q20.48 0 35.84-12.288t15.36-28.672q0-40.96-51.2-40.96-49.152 0-49.152 40.96 0 16.384 14.336 28.672t34.816 12.288zM358.4 192q16.384 0 28.672-15.36t12.288-35.84-12.288-35.84-28.672-15.36-28.672 15.36-12.288 35.84 12.288 35.84 28.672 15.36zM114.688 255.488q36.864 36.864 65.536 8.192t-8.192-65.536q-14.336-14.336-33.792-16.384t-29.696 8.192q-30.72 28.672 6.144 65.536zM104.448 695.808q28.672 28.672 65.536-8.192 14.336-14.336 16.384-33.792t-8.192-29.696q-30.72-28.672-65.536 6.144-36.864 36.864-8.192 65.536zM546.816 200.192q-34.816 36.864-6.144 65.536t65.536-8.192q14.336-14.336 16.384-33.792t-10.24-29.696q-30.72-28.672-65.536 6.144zM358.4 704q-16.384 0-28.672 15.36t-12.288 35.84 12.288 35.84 28.672 15.36 28.672-15.36 12.288-35.84-12.288-35.84-28.672-15.36z" horiz-adv-x="717" />
<glyph unicode="&#xe866;" d="M972.8 488.96q20.48 0 35.84-12.288t15.36-28.672q0-40.96-51.2-40.96h-49.152q-51.2 0-51.2 40.96 0 16.384 15.36 28.672t35.84 12.288h49.152zM512 728.576q116.736 0 199.68-81.92t82.944-198.656q0-118.784-82.944-200.704t-199.68-81.92-198.656 81.92-81.92 200.704q0 116.736 81.92 198.656t198.656 81.92zM512 243.2q83.968 0 144.384 59.392t60.416 145.408q0 83.968-60.416 144.384t-144.384 60.416-144.384-60.416-60.416-144.384q0-86.016 60.416-145.408t144.384-59.392zM153.6 448q0-40.96-51.2-40.96h-51.2q-51.2 0-51.2 40.96 0 16.384 15.36 28.672t35.84 12.288h51.2q20.48 0 35.84-12.288t15.36-28.672zM512 806.4q-16.384 0-28.672 15.36t-12.288 35.84v51.2q0 20.48 12.288 35.84t28.672 15.36 28.672-15.36 12.288-35.84v-51.2q0-20.48-12.288-35.84t-28.672-15.36zM512 89.6q16.384 0 28.672-15.36t12.288-35.84v-51.2q0-20.48-12.288-35.84t-28.672-15.36-28.672 15.36-12.288 35.84v51.2q0 20.48 12.288 35.84t28.672 15.36zM888.832 765.44l-34.816-34.816q-34.816-34.816-65.536-8.192-28.672 28.672 8.192 65.536 4.096 6.144 34.816 36.864 36.864 34.816 65.536 6.144t-8.192-65.536zM172.032 163.328q14.336 16.384 33.792 18.432t29.696-10.24q12.288-12.288 10.24-31.744t-16.384-33.792l-36.864-36.864q-14.336-14.336-33.792-16.384t-29.696 10.24q-30.72 28.672 6.144 65.536 6.144 4.096 36.864 34.816zM192.512 824.832l36.864-36.864q36.864-36.864 6.144-65.536-10.24-10.24-29.696-8.192t-33.792 16.384q-30.72 30.72-36.864 34.816-14.336 14.336-16.384 33.792t10.24 31.744q10.24 12.288 29.696 10.24t33.792-16.384zM796.672 105.984q-36.864 36.864-8.192 65.536t65.536-8.192l34.816-34.816q36.864-36.864 8.192-65.536t-65.536 6.144q-30.72 30.72-34.816 36.864z" />
<glyph unicode="&#xe867;" d="M972.8 488.96q20.48 0 35.84-12.288t15.36-28.672q0-40.96-51.2-40.96h-49.152q-51.2 0-51.2 40.96 0 16.384 15.36 28.672t35.84 12.288h49.152zM512 728.576q116.736 0 199.68-81.92t82.944-198.656q0-118.784-82.944-200.704t-199.68-81.92-198.656 81.92-81.92 200.704q0 116.736 81.92 198.656t198.656 81.92zM518.144 243.2v409.6q-88.064 0-149.504-60.416t-61.44-144.384q0-86.016 61.44-145.408t149.504-59.392zM153.6 448q0-40.96-51.2-40.96h-51.2q-51.2 0-51.2 40.96 0 16.384 15.36 28.672t35.84 12.288h51.2q20.48 0 35.84-12.288t15.36-28.672zM512 806.4q-16.384 0-28.672 15.36t-12.288 35.84v51.2q0 20.48 12.288 35.84t28.672 15.36 28.672-15.36 12.288-35.84v-51.2q0-20.48-12.288-35.84t-28.672-15.36zM512 89.6q16.384 0 28.672-15.36t12.288-35.84v-51.2q0-20.48-12.288-35.84t-28.672-15.36-28.672 15.36-12.288 35.84v51.2q0 20.48 12.288 35.84t28.672 15.36zM888.832 765.44l-34.816-34.816q-34.816-34.816-65.536-8.192-28.672 28.672 8.192 65.536 4.096 6.144 34.816 36.864 36.864 34.816 65.536 6.144t-8.192-65.536zM172.032 163.328q14.336 16.384 33.792 18.432t29.696-10.24q12.288-12.288 10.24-31.744t-16.384-33.792l-36.864-36.864q-14.336-14.336-33.792-16.384t-29.696 10.24q-30.72 28.672 6.144 65.536 6.144 4.096 36.864 34.816zM192.512 824.832l36.864-36.864q36.864-36.864 6.144-65.536-10.24-10.24-29.696-8.192t-33.792 16.384q-30.72 30.72-36.864 34.816-14.336 14.336-16.384 33.792t10.24 31.744q10.24 12.288 29.696 10.24t33.792-16.384zM796.672 105.984q-36.864 36.864-8.192 65.536t65.536-8.192l34.816-34.816q36.864-36.864 8.192-65.536t-65.536 6.144q-30.72 30.72-34.816 36.864z" />
<glyph unicode="&#xe868;" d="M491.52 939.52q204.8 0 348.16-143.36t143.36-348.16q0-202.752-143.36-347.136t-348.16-144.384q-202.752 0-347.136 144.384t-144.384 347.136q0 204.8 144.384 348.16t347.136 143.36zM-145.408 673.28q0-135.168 83.968-235.52l526.336 526.336q-102.4 83.968-237.568 83.968-155.648 0-264.192-109.568t-108.544-265.216zM118.784 564.736q155.648 0 265.216 109.568t109.568 263.168q0 133.12-83.968 237.568l-526.336-526.336q100.352-83.968 235.52-83.968z" horiz-adv-x="983" />
<glyph unicode="&#xe869;" d="M487.424 853.504h323.584v-323.584l-102.4 126.976-149.504-155.648-102.4 102.4 155.648 149.504zM251.904 398.848l102.4-102.4-155.648-149.504 124.928-102.4h-323.584v323.584l102.4-124.928z" horiz-adv-x="811" />
<glyph unicode="&#xe86a;" d="M159.744 239.104l-108.544 102.4h303.104v-303.104l-102.4 108.544-149.504-159.744-102.4 102.4zM921.6 806.4l-157.696-147.456 106.496-102.4h-301.056v301.056l102.4-106.496 147.456 157.696z" horiz-adv-x="922" />
<glyph unicode="&#xe86b;" d="M716.8 857.6q43.008 0 72.704-29.696t29.696-72.704v-409.6q0-40.96-29.696-71.68t-72.704-30.72h-409.6q-40.96 0-71.68 30.72t-30.72 71.68v411.648q0 40.96 29.696 70.656t72.704 29.696h409.6zM716.8 345.6v409.6h-409.6v-409.6h409.6zM102.4 448v-307.2h307.2v-102.4h-307.2q-40.96 0-71.68 30.72t-30.72 71.68v307.2h102.4z" horiz-adv-x="819" />
<glyph unicode="&#xe86c;" d="M921.6 908.8q43.008 0 72.704-30.72t29.696-71.68v-614.4q0-43.008-29.696-72.704t-72.704-29.696h-202.752v100.352h204.8v473.088h-821.248v-473.088h204.8v-100.352h-204.8q-40.96 0-71.68 29.696t-30.72 72.704v614.4q0 40.96 30.72 71.68t71.68 30.72h819.2zM133.12 736.768q38.912 0 38.912 38.912 0 16.384-11.264 26.624t-27.648 10.24-27.648-11.264-11.264-25.6q0-16.384 11.264-27.648t27.648-11.264zM235.52 736.768q38.912 0 38.912 38.912 0 16.384-11.264 26.624t-27.648 10.24-27.648-11.264-11.264-25.6q0-16.384 11.264-27.648t27.648-11.264zM923.648 742.912v63.488h-616.448v-63.488h616.448zM509.952 540.16l247.808-245.76h-153.6v-307.2h-188.416v307.2h-153.6z" />
<glyph unicode="&#xe86d;" d="M921.6 857.6q43.008 0 72.704-30.72t29.696-71.68v-614.4q0-43.008-29.696-72.704t-72.704-29.696h-819.2q-40.96 0-71.68 29.696t-30.72 72.704v614.4q0 40.96 30.72 71.68t71.68 30.72h819.2zM235.52 761.344q-16.384 0-27.648-11.264t-11.264-25.6q0-16.384 11.264-27.648t27.648-11.264q38.912 0 38.912 38.912 0 16.384-11.264 26.624t-27.648 10.24zM94.208 724.48q0-16.384 11.264-27.648t27.648-11.264q38.912 0 38.912 38.912 0 16.384-11.264 26.624t-27.648 10.24-27.648-11.264-11.264-25.6zM923.648 140.8v471.040h-821.248v-471.040h821.248zM923.648 693.76v61.44h-616.448v-61.44h616.448z" />
<glyph unicode="&#xe86e;" d="M235.52 960l235.52-372.736h-471.040zM235.52-64l-235.52 374.784h471.040z" horiz-adv-x="471" />
<glyph unicode="&#xe86f;" d="M471.040 919.040q194.56 0 332.8-138.24t138.24-332.8-138.24-332.8-332.8-138.24-332.8 138.24-138.24 332.8 138.24 332.8 332.8 138.24zM471.040 79.36q151.552 0 260.096 108.544t108.544 260.096q0 153.6-108.544 261.12t-260.096 107.52-260.096-107.52-108.544-261.12q0-151.552 108.544-260.096t260.096-108.544zM563.2 646.656v-210.944h114.688l-206.848-194.56-206.848 194.56h114.688v210.944h184.32z" horiz-adv-x="942" />
<glyph unicode="&#xe870;" d="M942.080 448q0-194.56-138.24-332.8t-332.8-138.24-332.8 138.24-138.24 332.8q0 196.608 138.24 333.824t332.8 137.216 332.8-137.216 138.24-333.824zM102.4 448q0-151.552 108.544-260.096t260.096-108.544 260.096 108.544 108.544 260.096q0 153.6-108.544 261.12t-260.096 107.52-260.096-107.52-108.544-261.12zM667.648 355.84h-208.896v-114.688l-194.56 206.848 194.56 208.896v-116.736h208.896v-184.32z" horiz-adv-x="942" />
<glyph unicode="&#xe871;" d="M0 448q0 194.56 138.24 332.8t332.8 138.24 332.8-138.24 138.24-332.8-138.24-332.8-332.8-138.24-332.8 138.24-138.24 332.8zM839.68 448q0 153.6-107.52 261.12t-261.12 107.52q-151.552 0-260.096-107.52t-108.544-261.12q0-151.552 108.544-260.096t260.096-108.544q153.6 0 261.12 108.544t107.52 260.096zM274.432 540.16h208.896v116.736l194.56-208.896-194.56-206.848v114.688h-208.896v184.32z" horiz-adv-x="942" />
<glyph unicode="&#xe872;" d="M471.040-23.040q-194.56 0-332.8 138.24t-138.24 332.8q0 196.608 138.24 333.824t332.8 137.216 332.8-137.216 138.24-333.824q0-194.56-138.24-332.8t-332.8-138.24zM471.040 816.64q-151.552 0-260.096-107.52t-108.544-261.12q0-151.552 108.544-260.096t260.096-108.544q153.6 0 261.12 108.544t107.52 260.096q0 153.6-107.52 261.12t-261.12 107.52zM378.88 251.392v208.896h-114.688l206.848 196.608 206.848-196.608h-114.688v-208.896h-184.32z" horiz-adv-x="942" />
<glyph unicode="&#xe873;" d="M577.536 521.728l-239.616-229.376q-18.432-18.432-40.96-18.432t-40.96 18.432l-239.616 229.376q-16.384 16.384-16.384 41.984t16.384 41.984q38.912 38.912 79.872 0l200.704-192.512 200.704 192.512q40.96 38.912 79.872 0 16.384-16.384 16.384-41.984t-16.384-41.984z" horiz-adv-x="594" />
<glyph unicode="&#xe874;" d="M247.808 730.624q14.336 16.384 39.936 16.384t41.984-16.384q38.912-36.864 0-81.92l-190.464-200.704 190.464-198.656q38.912-45.056 0-81.92-16.384-16.384-40.96-16.384t-40.96 16.384l-231.424 241.664q-16.384 16.384-16.384 38.912 0 24.576 16.384 40.96 210.944 219.136 231.424 241.664z" horiz-adv-x="349" />
<glyph unicode="&#xe875;" d="M100.352 730.624l231.424-241.664q16.384-16.384 16.384-40.96 0-22.528-16.384-38.912l-231.424-241.664q-16.384-16.384-40.96-16.384t-40.96 16.384q-36.864 36.864 0 81.92l190.464 198.656-190.464 200.704q-36.864 45.056 0 81.92 16.384 16.384 41.984 16.384t39.936-16.384z" horiz-adv-x="348" />
<glyph unicode="&#xe876;" d="M577.536 376.32q16.384-16.384 16.384-41.984t-16.384-41.984q-38.912-38.912-79.872 0l-200.704 192.512-200.704-192.512q-40.96-38.912-79.872 0-16.384 16.384-16.384 41.984t16.384 41.984l239.616 229.376q16.384 16.384 40.96 16.384t40.96-16.384z" horiz-adv-x="594" />
<glyph unicode="&#xe877;" d="M414.72 570.88q22.528 26.624 49.152 0 26.624-22.528 0-49.152l-200.704-196.608q-22.528-22.528-49.152 0l-200.704 196.608q-26.624 26.624 0 49.152 24.576 24.576 51.2 0l174.080-159.744z" horiz-adv-x="477" />
<glyph unicode="&#xe878;" d="M258.048 273.92q26.624-26.624 0-49.152-26.624-26.624-49.152 0l-196.608 198.656q-24.576 24.576 0 51.2l196.608 198.656q22.528 26.624 49.152 0 26.624-22.528 0-49.152l-159.744-176.128z" horiz-adv-x="271" />
<glyph unicode="&#xe879;" d="M13.312 273.92l161.792 174.080-161.792 176.128q-26.624 26.624 0 49.152 26.624 26.624 49.152 0l196.608-198.656q24.576-26.624 0-51.2l-196.608-198.656q-22.528-26.624-49.152 0-26.624 22.528 0 49.152z" horiz-adv-x="271" />
<glyph unicode="&#xe87a;" d="M63.488 325.12q-26.624-22.528-51.2 0-24.576 24.576 0 51.2l200.704 194.56q26.624 26.624 49.152 0l200.704-194.56q24.576-26.624 0-51.2-24.576-22.528-51.2 0l-174.080 161.792z" horiz-adv-x="475" />
<glyph unicode="&#xe87b;" d="M64.512 673.28l378.88-364.544 380.928 364.544q22.528 26.624 49.152 0 26.624-22.528 0-49.152l-405.504-401.408q-22.528-22.528-49.152 0l-405.504 401.408q-26.624 26.624 0 49.152 24.576 24.576 51.2 0z" horiz-adv-x="887" />
<glyph unicode="&#xe87c;" d="M462.848 69.12q26.624-26.624 0-49.152-26.624-26.624-49.152 0l-401.408 403.456q-24.576 24.576 0 51.2l401.408 403.456q22.528 26.624 49.152 0 26.624-22.528 0-49.152l-366.592-380.928z" horiz-adv-x="476" />
<glyph unicode="&#xe87d;" d="M13.312 69.12l366.592 378.88-366.592 380.928q-26.624 26.624 0 49.152 26.624 26.624 49.152 0l401.408-403.456q24.576-26.624 0-51.2l-401.408-403.456q-22.528-26.624-49.152 0-26.624 22.528 0 49.152z" horiz-adv-x="476" />
<glyph unicode="&#xe87e;" d="M823.296 222.72l-380.928 366.592-378.88-366.592q-26.624-22.528-51.2 0-24.576 24.576 0 51.2l405.504 399.36q26.624 26.624 49.152 0l405.504-399.36q24.576-26.624 0-51.2-26.624-22.528-49.152 0z" horiz-adv-x="885" />
<glyph unicode="&#xe87f;" d="M675.84 464.384l-337.92-389.12-337.92 389.12h196.608v358.4h282.624v-358.4h196.608z" horiz-adv-x="676" />
<glyph unicode="&#xe880;" d="M387.072 110.080l-387.072 337.92 387.072 337.92v-194.56h360.448v-284.672h-360.448v-196.608z" horiz-adv-x="748" />
<glyph unicode="&#xe881;" d="M358.4 785.92l389.12-337.92-389.12-337.92v196.608h-358.4v284.672h358.4v194.56z" horiz-adv-x="748" />
<glyph unicode="&#xe882;" d="M675.84 433.664h-196.608v-358.4h-282.624v358.4h-196.608l337.92 389.12z" horiz-adv-x="676" />
<glyph unicode="&#xe883;" d="M471.040 652.8l-235.52-409.6-235.52 409.6h471.040z" horiz-adv-x="471" />
<glyph unicode="&#xe884;" d="M409.6 683.52v-471.040l-409.6 235.52z" horiz-adv-x="410" />
<glyph unicode="&#xe885;" d="M0 683.52l409.6-235.52-409.6-235.52v471.040z" horiz-adv-x="410" />
<glyph unicode="&#xe886;" d="M0 243.2l235.52 409.6 235.52-409.6h-471.040z" horiz-adv-x="471" />
<glyph unicode="&#xe887;" d="M778.24 464.384l-389.12-389.12-389.12 389.12h196.608v358.4h385.024v-358.4h196.608z" horiz-adv-x="778" />
<glyph unicode="&#xe888;" d="M387.072 837.12v-194.56h360.448v-387.072h-360.448v-196.608l-387.072 389.12z" horiz-adv-x="748" />
<glyph unicode="&#xe889;" d="M358.4 837.12l389.12-389.12-389.12-389.12v196.608h-358.4v387.072h358.4v194.56z" horiz-adv-x="748" />
<glyph unicode="&#xe88a;" d="M778.24 433.664h-196.608v-358.4h-385.024v358.4h-196.608l389.12 389.12z" horiz-adv-x="778" />
<glyph unicode="&#xe88b;" d="M512 192l-256-245.76-256 245.76h165.888v757.76h180.224v-757.76h165.888z" horiz-adv-x="512" />
<glyph unicode="&#xe88c;" d="M245.76 192l-245.76 256 245.76 256v-163.84h757.76v-182.272h-757.76v-165.888z" horiz-adv-x="1004" />
<glyph unicode="&#xe88d;" d="M759.808 192v165.888h-759.808v182.272h759.808v163.84l243.712-256z" horiz-adv-x="1004" />
<glyph unicode="&#xe88e;" d="M512 706.048h-165.888v-759.808h-180.224v759.808h-165.888l256 243.712z" horiz-adv-x="512" />
<glyph unicode="&#xe88f;" d="M544.768 843.264q174.080 0 295.936-122.88t121.856-296.96-121.856-296.96-295.936-122.88q-145.408 0-258.048 90.112l71.68 75.776q86.016-61.44 186.368-61.44 129.024 0 221.184 92.16t92.16 223.232-92.16 223.232-221.184 92.16q-126.976 0-219.136-89.088t-94.208-216.064h145.408l-188.416-208.896-188.416 208.896h126.976q2.048 169.984 124.928 289.792t292.864 119.808z" horiz-adv-x="963" />
<glyph unicode="&#xe890;" d="M417.792 867.84q172.032 0 293.888-118.784t125.952-288.768h124.928l-188.416-210.944-188.416 210.944h147.456q-4.096 126.976-96.256 215.040t-219.136 88.064q-129.024 0-221.184-92.16t-92.16-223.232q0-129.024 92.16-221.184t221.184-92.16q106.496 0 186.368 61.44l71.68-77.824q-112.64-90.112-258.048-90.112-172.032 0-294.912 122.88t-122.88 296.96 122.88 296.96 294.912 122.88z" horiz-adv-x="963" />
<glyph unicode="&#xe891;" d="M190.464 232.96l118.784 118.784v-299.008l-282.624 16.384 90.112 88.064q-118.784 124.928-116.736 296.96t122.88 294.912q102.4 102.4 245.76 118.784l4.096-104.448q-102.4-16.384-176.128-90.112-90.112-90.112-92.16-218.112t86.016-222.208zM530.432 845.312l282.624-16.384-90.112-88.064q118.784-124.928 116.736-296.96t-122.88-294.912q-98.304-100.352-245.76-120.832l-2.048 106.496q100.352 16.384 174.080 90.112 90.112 90.112 92.16 218.112t-86.016 222.208l-116.736-118.784z" horiz-adv-x="840" />
<glyph unicode="&#xe892;" d="M102.4 294.4q-43.008 0-72.704 30.72t-29.696 71.68v358.4h143.36v-317.44h372.736v153.6l245.76-225.28-245.76-225.28v153.6h-413.696z" horiz-adv-x="762" />
<glyph unicode="&#xe893;" d="M204.8 448v-92.16l-204.8 163.84 204.8 174.080v-102.4h563.2q40.96 0 71.68-29.696t30.72-72.704v-286.72h-143.36v245.76h-522.24z" horiz-adv-x="870" />
<glyph unicode="&#xe894;" d="M772.096 617.984q-55.296 0-107.52-32.768t-81.92-67.584-84.992-106.496q-49.152-63.488-76.8-96.256t-79.872-78.848-109.568-67.584-124.928-21.504h-106.496v143.36h106.496q55.296 0 108.544 32.768t82.944 67.584 84.992 106.496q63.488 83.968 103.424 129.024t118.784 90.112 166.912 45.056h36.864v122.88l215.040-184.32-215.040-184.32v102.4h-36.864zM276.48 527.872q-75.776 79.872-169.984 79.872h-106.496v143.36h106.496q143.36 0 260.096-110.592-14.336-16.384-37.888-46.080t-27.648-33.792q-8.192-12.288-24.576-32.768zM808.96 280.064v102.4l215.040-184.32-215.040-184.32v122.88h-36.864q-143.36 0-266.24 118.784 47.104 59.392 73.728 94.208 0 2.048 6.144 9.216t8.192 11.264q86.016-90.112 178.176-90.112h36.864z" />
<glyph unicode="&#xe895;" d="M819.2 642.56q43.008 0 72.704-29.696t29.696-72.704v-296.96q0-40.96-29.696-71.68t-72.704-30.72h-716.8q-40.96 0-71.68 30.72t-30.72 71.68v296.96q0 43.008 30.72 72.704t71.68 29.696h256v112.64l204.8-184.32-204.8-184.32v112.64h-215.040v-215.040h634.88v215.040h-153.6v143.36h194.56z" horiz-adv-x="922" />
<glyph unicode="&#xe896;" d="M716.8 695.808v-143.36h-512v-92.16l-204.8 163.84 204.8 174.080v-102.4h512zM1024 265.728l-204.8-163.84v92.16h-512v143.36h512v102.4z" />
<glyph unicode="&#xe897;" d="M497.664 474.624q14.336-10.24 14.336-26.624 0-14.336-14.336-24.576l-438.272-272.384q-24.576-16.384-41.984-6.144t-17.408 40.96v526.336q0 30.72 17.408 40.96t41.984-6.144z" horiz-adv-x="512" />
<glyph unicode="&#xe898;" d="M538.624 755.2q75.776 0 75.776-65.536v-481.28q0-67.584-75.776-67.584h-460.8q-77.824 0-77.824 67.584v481.28q0 36.864 18.432 51.2t59.392 14.336h460.8z" horiz-adv-x="614" />
<glyph unicode="&#xe899;" d="M450.56 806.4q92.16 0 92.16-65.536v-583.68q0-67.584-92.16-67.584t-92.16 67.584v583.68q0 65.536 92.16 65.536zM92.16 806.4q92.16 0 92.16-65.536v-583.68q0-67.584-92.16-67.584t-92.16 67.584v583.68q0 65.536 92.16 65.536z" horiz-adv-x="543" />
<glyph unicode="&#xe89a;" d="M358.4 806.4q149.504 0 253.952-104.448t104.448-253.952q0-147.456-104.448-252.928t-253.952-105.472-253.952 105.472-104.448 252.928q0 149.504 104.448 253.952t253.952 104.448z" horiz-adv-x="717" />
<glyph unicode="&#xe89b;" d="M421.888 472.576q14.336-10.24 14.336-24.576 0-12.288-14.336-22.528l-370.688-233.472q-22.528-14.336-36.864-5.12t-14.336 35.84v452.608q0 26.624 14.336 35.84t36.864-5.12zM538.624 747.008q75.776 0 75.776-59.392v-477.184q0-59.392-75.776-59.392-77.824 0-77.824 59.392v477.184q0 59.392 77.824 59.392z" horiz-adv-x="614" />
<glyph unicode="&#xe89c;" d="M178.176 448q0 14.336 14.336 24.576l372.736 233.472q20.48 14.336 34.816 5.12t14.336-35.84v-452.608q0-26.624-14.336-35.84t-34.816 5.12l-372.736 233.472q-14.336 10.24-14.336 22.528zM0 687.616q0 59.392 77.824 59.392 75.776 0 75.776-59.392v-477.184q0-59.392-75.776-59.392-77.824 0-77.824 59.392v477.184z" horiz-adv-x="614" />
<glyph unicode="&#xe89d;" d="M886.784 472.576q14.336-10.24 14.336-24.576t-14.336-22.528l-380.928-253.952q-22.528-14.336-37.888-6.144t-15.36 36.864v493.568q0 28.672 15.36 36.864t37.888-6.144zM421.888 472.576q14.336-10.24 14.336-24.576t-14.336-22.528l-368.64-253.952q-20.48-14.336-36.864-6.144t-16.384 36.864v493.568q0 28.672 16.384 36.864t36.864-6.144z" horiz-adv-x="901" />
<glyph unicode="&#xe89e;" d="M0 448q0 14.336 14.336 24.576l382.976 253.952q20.48 14.336 36.864 6.144t16.384-36.864v-493.568q0-28.672-16.384-36.864t-36.864 6.144l-382.976 253.952q-14.336 8.192-14.336 22.528zM464.896 448q0 14.336 14.336 24.576l368.64 253.952q20.48 14.336 36.864 6.144t16.384-36.864v-493.568q0-28.672-16.384-36.864t-36.864 6.144l-368.64 253.952q-14.336 8.192-14.336 22.528z" horiz-adv-x="901" />
<glyph unicode="&#xe89f;" d="M1024 550.4v-256q0-43.008-29.696-72.704t-72.704-29.696h-819.2q-40.96 0-71.68 29.696t-30.72 72.704v307.2q0 40.96 30.72 71.68t71.68 30.72h819.2q43.008 0 72.704-30.72t29.696-71.68v-51.2zM921.6 294.4v307.2h-819.2v-307.2h819.2z" />
<glyph unicode="&#xe8a0;" d="M1024 550.4v-256q0-43.008-29.696-72.704t-72.704-29.696h-819.2q-40.96 0-71.68 29.696t-30.72 72.704v307.2q0 40.96 30.72 71.68t71.68 30.72h819.2q43.008 0 72.704-30.72t29.696-71.68v-51.2zM921.6 294.4v307.2h-819.2v-307.2h819.2zM153.6 345.6v202.752h204.8v-202.752h-204.8z" />
<glyph unicode="&#xe8a1;" d="M1024 550.4v-256q0-43.008-29.696-72.704t-72.704-29.696h-819.2q-40.96 0-71.68 29.696t-30.72 72.704v307.2q0 40.96 30.72 71.68t71.68 30.72h819.2q43.008 0 72.704-30.72t29.696-71.68v-51.2zM921.6 294.4v307.2h-819.2v-307.2h819.2zM153.6 345.6v202.752h204.8v-202.752h-204.8zM409.6 345.6v202.752h204.8v-202.752h-204.8z" />
<glyph unicode="&#xe8a2;" d="M1024 550.4v-256q0-43.008-29.696-72.704t-72.704-29.696h-819.2q-40.96 0-71.68 29.696t-30.72 72.704v307.2q0 40.96 30.72 71.68t71.68 30.72h819.2q43.008 0 72.704-30.72t29.696-71.68v-51.2zM921.6 294.4v307.2h-819.2v-307.2h819.2zM153.6 345.6v202.752h204.8v-202.752h-204.8zM409.6 345.6v202.752h204.8v-202.752h-204.8zM665.6 548.352h204.8v-202.752h-204.8v202.752z" />
<glyph unicode="&#xe8a3;" d="M440.32 888.32q182.272 0 311.296-129.024t129.024-311.296-129.024-311.296-311.296-129.024-311.296 129.024-129.024 311.296 129.024 311.296 311.296 129.024zM477.184 91.648q126.976 14.336 217.088 104.448t102.4 217.088h-196.608v71.68h196.608q-12.288 126.976-102.4 217.088t-217.088 104.448v-198.656h-71.68v198.656q-126.976-14.336-218.112-104.448t-103.424-217.088h198.656v-71.68h-198.656q12.288-126.976 103.424-217.088t218.112-104.448v198.656h71.68v-198.656z" horiz-adv-x="881" />
<glyph unicode="&#xe8a4;" d="M877.568 726.528q73.728-49.152 103.424-112.64t20.48-106.496-35.84-49.152q-16.384-4.096-55.296 10.24t-81.92 10.24-81.92-47.104q-30.72-47.104-21.504-76.8t34.816-66.56 23.552-51.2q-2.048-26.624-36.864-64.512t-129.024-75.776-221.184-37.888q-190.464 0-297.984 103.424t-97.28 250.88q8.192 120.832 106.496 240.64t221.184 154.624q296.96 86.016 548.864-81.92zM551.936 249.344q30.72 0 53.248 22.528t22.528 55.296-22.528 54.272-53.248 21.504q-32.768 0-55.296-21.504t-22.528-54.272 22.528-55.296 55.296-22.528z" horiz-adv-x="1004" />
<glyph unicode="&#xe8a5;" d="M102.4 294.4q20.48 0 35.84-15.36t15.36-35.84-15.36-35.84-35.84-15.36h-51.2q-20.48 0-35.84 15.36t-15.36 35.84 14.336 35.84 36.864 15.36h51.2zM102.4 499.2q20.48 0 35.84-15.36t15.36-35.84-15.36-35.84-35.84-15.36h-51.2q-20.48 0-35.84 15.36t-15.36 35.84 14.336 35.84 36.864 15.36h51.2zM102.4 704q20.48 0 35.84-15.36t15.36-35.84-15.36-35.84-35.84-15.36h-51.2q-20.48 0-35.84 15.36t-15.36 35.84 14.336 35.84 36.864 15.36h51.2zM307.2 601.6q-20.48 0-35.84 15.36t-15.36 35.84 15.36 35.84 35.84 15.36h358.4q22.528 0 36.864-15.36t14.336-35.84-15.36-35.84-35.84-15.36h-358.4zM665.6 499.2q22.528 0 36.864-15.36t14.336-35.84-15.36-35.84-35.84-15.36h-358.4q-20.48 0-35.84 15.36t-15.36 35.84 15.36 35.84 35.84 15.36h358.4zM665.6 294.4q22.528 0 36.864-15.36t14.336-35.84-15.36-35.84-35.84-15.36h-358.4q-20.48 0-35.84 15.36t-15.36 35.84 15.36 35.84 35.84 15.36h358.4z" horiz-adv-x="717" />
<glyph unicode="&#xe8a6;" d="M358.4 499.2q22.528 0 36.864-15.36t14.336-35.84-15.36-35.84-35.84-15.36h-307.2q-20.48 0-35.84 15.36t-15.36 35.84 14.336 35.84 36.864 15.36h307.2zM358.4 294.4q22.528 0 36.864-15.36t14.336-35.84-15.36-35.84-35.84-15.36h-307.2q-20.48 0-35.84 15.36t-15.36 35.84 14.336 35.84 36.864 15.36h307.2zM993.28 499.2q30.72 0 30.72-51.2t-30.72-51.2h-174.080v-174.080q0-30.72-51.2-30.72t-51.2 30.72v174.080h-167.936q-30.72 0-30.72 51.2t30.72 51.2h167.936v174.080q0 30.72 51.2 30.72t51.2-30.72v-174.080h174.080zM358.4 704q22.528 0 36.864-15.36t14.336-35.84-15.36-35.84-35.84-15.36h-307.2q-20.48 0-35.84 15.36t-15.36 35.84 14.336 35.84 36.864 15.36h307.2z" />
<glyph unicode="&#xe8a7;" d="M501.76 243.2q43.008 0 72.704-30.72t29.696-71.68q0-43.008-29.696-72.704t-72.704-29.696q-40.96 0-70.656 29.696t-29.696 72.704q0 40.96 29.696 71.68t70.656 30.72zM286.72 357.888q90.112 90.112 215.040 90.112t215.040-90.112l-71.68-73.728q-59.392 59.392-143.36 59.392t-143.36-59.392zM143.36 501.248q149.504 151.552 359.424 151.552t357.376-151.552l-71.68-71.68q-118.784 120.832-285.696 120.832t-287.744-120.832zM0 646.656q208.896 210.944 502.784 210.944t500.736-210.944l-71.68-71.68q-178.176 180.224-430.080 180.224t-430.080-180.224z" horiz-adv-x="1004" />
<glyph unicode="&#xe8a8;" d="M522.24 226.816v-67.584q71.68-8.192 118.784-32.768t47.104-57.344q0-36.864-66.56-64.512t-160.768-27.648q-92.16 0-159.744 27.648t-67.584 64.512q0 32.768 47.104 57.344t120.832 32.768v67.584q0 51.2-33.792 86.016t-115.712 90.112q-57.344 36.864-89.088 62.464t-76.8 73.728-65.536 110.592-20.48 140.288q0 14.336 11.264 24.576t25.6 10.24h176.128q49.152 94.208 247.808 94.208 200.704 0 249.856-94.208h174.080q14.336 0 25.6-10.24t11.264-24.576q0-77.824-20.48-140.288t-65.536-110.592-76.8-73.728-89.088-62.464q-79.872-53.248-113.664-89.088t-33.792-87.040zM663.552 484.864q81.92 57.344 129.024 116.736t55.296 151.552h-129.024q-6.144-161.792-55.296-268.288zM460.8 857.6q-63.488 0-110.592-15.36t-65.536-32.768-18.432-29.696q0-14.336 18.432-31.744t65.536-32.768 110.592-15.36 110.592 15.36 65.536 32.768 18.432 31.744q0 12.288-18.432 29.696t-65.536 32.768-110.592 15.36zM73.728 753.152q8.192-92.16 55.296-151.552t129.024-116.736q-49.152 106.496-55.296 268.288h-129.024z" horiz-adv-x="922" />
<glyph unicode="&#xe8a9;" d="M788.48 448q0-100.352 36.864-160.768t79.872-60.416h67.584q-30.72-47.104-65.536-66.56t-120.832-19.456h-512q-133.12 0-203.776 96.256t-70.656 210.944q0 112.64 70.656 209.92t203.776 97.28h512q86.016 0 120.832-19.456t65.536-66.56h-67.584q-43.008 0-79.872-61.44t-36.864-159.744zM649.216 355.84q10.24 12.288-8.192 26.624-139.264 137.216-182.272 167.936-16.384 10.24-26.624 13.312t-18.432-5.12-10.24-12.288-8.192-18.432l-22.528-57.344-151.552 67.584q-26.624 12.288-34.816 0-8.192-14.336 8.192-28.672 139.264-135.168 184.32-165.888 34.816-16.384 43.008-11.264t18.432 31.744l24.576 59.392 149.504-69.632q26.624-12.288 34.816 2.048zM966.656 552.448q22.528 0 39.936-27.648t17.408-72.704-17.408-73.728-39.936-28.672h-38.912q-22.528 0-38.912 28.672t-16.384 73.728 16.384 72.704 38.912 27.648h38.912z" />
<glyph unicode="&#xe8aa;" d="M544.768 867.84q174.080 0 295.936-122.88t121.856-296.96-121.856-296.96-295.936-122.88q-141.312 0-258.048 90.112l71.68 77.824q83.968-61.44 186.368-61.44 129.024 0 221.184 92.16t92.16 221.184q0 131.072-92.16 223.232t-221.184 92.16q-126.976 0-218.112-88.064t-95.232-215.040h145.408l-188.416-210.944-188.416 210.944h126.976q4.096 169.984 125.952 288.768t291.84 118.784zM507.904 673.28h71.68v-208.896l133.12-133.12-51.2-51.2-153.6 153.6v239.616z" horiz-adv-x="963" />
<glyph unicode="&#xe8ab;" d="M921.6 898.56q43.008 0 72.704-30.72t29.696-71.68v-563.2q0-43.008-29.696-78.848t-70.656-44.032l-223.232-45.056 88.064-38.912q51.2-28.672-20.48-28.672h-512q-100.352 0 32.768 53.248l36.864 14.336-225.28 45.056q-40.96 8.192-70.656 44.032t-29.696 78.848v563.2q0 40.96 30.72 71.68t71.68 30.72h819.2zM921.6 237.056v569.344h-819.2v-569.344h819.2z" />
<glyph unicode="&#xe8ac;" d="M491.52 949.76q43.008 0 72.704-29.696t29.696-72.704v-798.72q0-40.96-29.696-71.68t-72.704-30.72h-389.12q-40.96 0-71.68 30.72t-30.72 71.68v798.72q0 43.008 30.72 72.704t71.68 29.696h389.12zM296.96-12.8q30.72 0 51.2 15.36t20.48 35.84q0 22.528-20.48 36.864t-51.2 14.336q-28.672 0-50.176-15.36t-21.504-35.84 21.504-35.84 50.176-15.36zM512 140.8v675.84h-430.080v-675.84h430.080z" horiz-adv-x="594" />
<glyph unicode="&#xe8ad;" d="M229.376 605.696q-22.528 0-43.008-10.24-49.152 53.248-94.208 131.072 55.296 75.776 131.072 120.832 94.208-38.912 155.648-83.968-6.144-16.384-6.144-32.768 0-6.144 4.096-22.528-63.488-49.152-118.784-106.496-16.384 4.096-28.672 4.096zM129.024 505.344q0-34.816 20.48-61.44-61.44-116.736-81.92-237.568-67.584 108.544-67.584 241.664 0 112.64 51.2 210.944 38.912-63.488 86.016-114.688-8.192-24.576-8.192-38.912zM473.088 830.976q-28.672 0-51.2-14.336-59.392 43.008-116.736 71.68 86.016 30.72 165.888 30.72 122.88 0 235.52-63.488-77.824-14.336-165.888-51.2-26.624 26.624-67.584 26.624zM622.592 359.936q-163.84 24.576-296.96 114.688 4.096 20.48 4.096 30.72 0 24.576-14.336 53.248 38.912 45.056 100.352 92.16 26.624-20.48 57.344-20.48 14.336 0 38.912 8.192 96.256-110.592 137.216-245.76-16.384-14.336-26.624-32.768zM753.664 224.768q38.912 14.336 55.296 61.44 59.392 4.096 110.592 18.432-47.104-149.504-169.984-237.568 6.144 49.152 6.144 100.352 0 10.24-1.024 28.672t-1.024 28.672zM600.064 292.352q-194.56-98.304-311.296-278.528-92.16 36.864-161.792 112.64 12.288 147.456 81.92 280.576 6.144-2.048 20.48-2.048 30.72 0 53.248 14.336 145.408-100.352 317.44-126.976zM788.48 796.16q153.6-139.264 153.6-348.16 0-22.528-4.096-67.584-65.536-18.432-133.12-24.576-24.576 57.344-90.112 61.44-49.152 149.504-151.552 270.336 10.24 20.48 10.24 43.008v10.24q102.4 43.008 215.040 55.296zM649.216 239.104q14.336-10.24 32.768-18.432 2.048-18.432 2.048-53.248 0-81.92-14.336-147.456-88.064-43.008-198.656-43.008-59.392 0-114.688 12.288 112.64 163.84 292.864 249.856z" horiz-adv-x="942" />
<glyph unicode="&#xe8ae;" d="M471.040 919.040q194.56 0 332.8-138.24t138.24-332.8-138.24-332.8-332.8-138.24-332.8 138.24-138.24 332.8 138.24 332.8 332.8 138.24zM471.040 294.4q63.488 0 108.544 45.056t45.056 108.544q0 65.536-44.032 109.568t-109.568 44.032q-63.488 0-108.544-45.056t-45.056-108.544 45.056-108.544 108.544-45.056z" horiz-adv-x="942" />
<glyph unicode="&#xe8af;" d="M990.208 497.152q40.96-43.008 30.72-73.728l-28.672-157.696q-4.096-20.48-22.528-33.792t-40.96-13.312h-835.584q-22.528 0-40.96 13.312t-22.528 33.792l-28.672 157.696q-8.192 32.768 32.768 73.728 8.192 10.24 36.864 38.912t69.632 68.608 53.248 52.224q22.528 22.528 53.248 22.528h528.384q30.72 0 53.248-22.528 16.384-16.384 54.272-53.248t68.608-66.56 38.912-39.936zM717.824 464.384h182.272l-104.448 116.736h-569.344l-104.448-116.736h182.272q8.192 0 12.288-8.192l40.96-102.4h307.2l40.96 102.4q4.096 8.192 12.288 8.192z" horiz-adv-x="1023" />
<glyph unicode="&#xe8b0;" d="M905.216 402.944q24.576-53.248 14.336-98.304l-34.816-188.416q-2.048-20.48-19.456-35.84t-39.936-15.36h-729.088q-22.528 0-39.936 15.36t-19.456 35.84l-34.816 188.416q-8.192 51.2 14.336 98.304l161.792 382.976q22.528 47.104 73.728 47.104h106.496l-20.48-208.896h-137.216l260.096-215.040 262.144 215.040h-139.264l-18.432 208.896h104.448q51.2 0 75.776-47.104zM835.584 267.776q2.048 22.528-10.24 38.912t-34.816 16.384h-659.456q-22.528 0-34.816-16.384t-10.24-38.912l14.336-75.776q2.048-22.528 19.456-37.888t37.888-15.36h606.208q22.528 0 39.936 15.36t19.456 37.888z" horiz-adv-x="923" />
<glyph unicode="&#xe8b1;" d="M491.52 939.52q204.8 0 348.16-144.384t143.36-347.136q0-204.8-143.36-348.16t-348.16-143.36q-202.752 0-347.136 143.36t-144.384 348.16q0 202.752 144.384 347.136t347.136 144.384zM911.36 448q0 135.168-79.872 244.736t-206.848 152.576q-18.432-24.576-16.384-32.768 4.096-38.912 18.432-52.224t30.72-7.168l32.768 12.288t20.48 2.048q22.528-24.576 0-48.128t-46.080-57.344-1.024-78.848q34.816-65.536 98.304-65.536 28.672-2.048 44.032-36.864t17.408-67.584q10.24-81.92-14.336-143.36-22.528-45.056 14.336-77.824 88.064 114.688 88.064 256zM434.176 861.696q-114.688-14.336-203.776-86.016t-130.048-178.176q6.144 0 22.528-2.048t28.672-3.072 26.624-4.096 24.576-8.192 12.288-13.312q4.096-12.288-14.336-46.080t-18.432-62.464q0-30.72 38.912-57.344t38.912-47.104q0-28.672 8.192-69.632t8.192-45.056q0-12.288 36.864-55.296t53.248-43.008q10.24 0 11.264 22.528t-2.048 55.296-3.072 40.96q0 32.768 14.336 75.776 12.288 43.008 60.416 71.68t56.32 47.104q16.384 34.816 9.216 62.464t-17.408 44.032-34.816 28.672-41.984 17.408-37.888 9.216-22.528 4.096q-16.384 6.144-43.008 7.168t-36.864-3.072-27.648 11.264-17.408 29.696q0 10.24 15.36 27.648t35.84 37.888 28.672 30.72q8.192 14.336 17.408 21.504t22.528 16.384 27.648 21.504q4.096 4.096 25.6 17.408t27.648 23.552zM360.448 48.64q67.584-20.48 131.072-20.48 131.072 0 231.424 69.632-26.624 45.056-120.832 34.816-24.576-2.048-66.56-17.408t-48.128-17.408q-75.776-16.384-77.824-16.384-12.288-2.048-26.624-14.336t-22.528-18.432z" horiz-adv-x="983" />
<glyph unicode="&#xe8b2;" d="M778.24 595.456q102.4 0 174.080-69.632t71.68-169.984-71.68-169.984-174.080-69.632h-591.872q-75.776 0-131.072 53.248t-55.296 126.976q0 75.776 54.272 129.024t132.096 53.248q2.048 0 10.24-1.024t10.24-1.024q-2.048 12.288-2.048 38.912 0 110.592 79.872 188.416t192.512 77.824q92.16 0 163.84-53.248t96.256-137.216q28.672 4.096 40.96 4.096z" />
<glyph unicode="&#xe8b3;" d="M778.24 595.456q102.4 0 174.080-69.632t71.68-169.984-71.68-169.984-174.080-69.632h-591.872q-75.776 0-131.072 53.248t-55.296 126.976q0 75.776 54.272 129.024t132.096 53.248q2.048 0 10.24-1.024t10.24-1.024q-2.048 12.288-2.048 38.912 0 110.592 79.872 188.416t192.512 77.824q92.16 0 163.84-53.248t96.256-137.216q28.672 4.096 40.96 4.096zM581.632 374.272q14.336 16.384 14.336 30.72 0 20.48-30.72 32.768h-4.096q-26.624 14.336-38.912 16.384l51.2 118.784q6.144 0 6.144 20.48 0 14.336-8.192 18.432-16.384 10.24-34.816-8.192-2.048-2.048-30.72-32.768t-62.464-67.584-46.080-53.248q-12.288-18.432-12.288-30.72 0-22.528 30.72-30.72l4.096-2.048q8.192-4.096 38.912-16.384l-53.248-116.736-2.048-8.192q-2.048-8.192-2.048-14.336 0-10.24 8.192-18.432 18.432-10.24 34.816 10.24 102.4 102.4 137.216 151.552z" />
<glyph unicode="&#xe8b4;" d="M40.96-12.8q-4.096 4.096 35.84 96.256t80.896 186.368 38.912 100.352-96.256 46.080-100.352 56.32q-4.096 12.288 86.016 122.88t184.32 214.016 98.304 99.328q6.144-4.096-75.776-190.464t-79.872-190.464 97.28-44.032 99.328-58.368q4.096-20.48-178.176-232.448t-190.464-205.824z" horiz-adv-x="410" />
<glyph unicode="&#xe8b5;" d="M536.576 333.312q108.544 108.544 128 258.048t-54.272 276.48q53.248-26.624 98.304-73.728 131.072-131.072 131.072-316.416t-131.072-316.416-317.44-131.072-317.44 131.072q-40.96 40.96-73.728 96.256 126.976-71.68 277.504-52.224t259.072 128z" horiz-adv-x="840" />
<glyph unicode="&#xe8b6;" d="M274.432-33.28l126.976 409.6h-184.32l-114.688-102.4h-102.4l81.92 174.080-81.92 174.080h102.4l114.688-102.4h184.32l-126.976 409.6h102.4l229.376-409.6h280.576t36.864-4.096 47.104-11.264 36.864-21.504 16.384-34.816q0-32.768-38.912-50.176t-75.776-19.456l-38.912-2.048h-264.192l-229.376-409.6h-102.4z" />
<glyph unicode="&#xe8b7;" d="M915.456 826.88q14.336 4.096 22.528-3.072t4.096-19.456q-2.048-6.144-73.728-317.44t-75.776-323.584q-2.048-14.336-14.336-19.456t-24.576 1.024l-284.672 153.6 22.528 26.624q397.312 430.080 403.456 436.224 4.096 4.096-1.024 9.216t-9.216 1.024l-563.2-411.648-114.688 45.056-194.56 77.824q-12.288 4.096-12.288 12.288t12.288 12.288q8.192 4.096 451.584 160.768t451.584 158.72zM319.488 81.408v208.896l163.84-83.968q-133.12-118.784-145.408-131.072-18.432-14.336-18.432 6.144z" horiz-adv-x="943" />
<glyph unicode="&#xe8b8;" d="M241.664 751.104q186.368 108.544 518.144 67.584 172.032-22.528 200.704-51.2 4.096-6.144-2.048-10.24-77.824-40.96-133.12-111.616t-79.872-135.168-66.56-135.168-95.232-107.52q-141.312-98.304-391.168-4.096-67.584-77.824-116.736-180.224-12.288-24.576-48.128-7.168t-25.6 39.936q45.056 102.4 132.096 197.632t180.224 156.672 180.224 108.544 144.384 69.632l55.296 20.48q-14.336 0-41.984-1.024t-106.496-14.336-151.552-38.912-165.888-86.016-164.864-144.384q-22.528 247.808 178.176 366.592z" horiz-adv-x="963" />
<glyph unicode="&#xe8b9;" d="M464.896 919.040q194.56 2.048 333.824-133.12t143.36-329.728q2.048-194.56-134.144-334.848t-330.752-144.384q-194.56-2.048-334.848 134.144t-142.336 330.752q-4.096 194.56 133.12 334.848t331.776 142.336zM464.896 857.6q-96.256 0-182.272-45.056l63.488-106.496q57.344 28.672 124.928 28.672t124.928-28.672l63.488 106.496q-90.112 47.104-194.56 45.056zM212.992 323.072q-28.672 61.44-28.672 124.928 0 65.536 28.672 126.976l-104.448 63.488q-47.104-90.112-47.104-194.56 2.048-98.304 47.104-184.32zM477.184 38.4q100.352 4.096 182.272 47.104l-63.488 106.496q-61.44-30.72-124.928-30.72t-124.928 30.72l-63.488-106.496q88.064-47.104 194.56-47.104zM471.040 222.72q94.208 0 159.744 66.56t65.536 158.72q0 94.208-65.536 159.744t-159.744 65.536-159.744-65.536-65.536-159.744q0-92.16 65.536-158.72t159.744-66.56zM729.088 323.072l106.496-63.488q47.104 98.304 45.056 194.56 0 98.304-45.056 184.32l-106.496-63.488q28.672-61.44 28.672-126.976 0-63.488-28.672-124.928z" horiz-adv-x="942" />
<glyph unicode="&#xe8ba;" d="M564.224 222.72q28.672-81.92-17.408-160.768t-142.336-113.664q-96.256-28.672-179.2 9.216t-105.472 119.808l-108.544 393.216q-20.48 69.632 6.144 137.216t86.016 108.544l-98.304 190.464q-14.336 34.816 14.336 49.152 30.72 18.432 49.152-14.336l100.352-196.608q81.92 22.528 157.696-16.384t104.448-118.784zM232.448 503.296q28.672 10.24 40.96 36.864t4.096 55.296q-10.24 28.672-35.84 41.984t-54.272 5.12q-28.672-10.24-40.96-36.864t-4.096-55.296q10.24-28.672 35.84-41.984t54.272-5.12z" horiz-adv-x="574" />
<glyph unicode="&#xe8bb;" d="M466.944 423.424v-102.4h-466.944q8.192 231.424 10.24 299.008 4.096 110.592 102.4 110.592h163.84q16.384 26.624 37.888 68.608t23.552 46.080q14.336 26.624 23.552 32.768t37.888 6.144h227.328q26.624 0 36.864-7.168t22.528-31.744q18.432-32.768 61.44-114.688h163.84q98.304 0 102.4-110.592l10.24-299.008h-464.896v102.4h-92.16zM391.168 785.92l-28.672-55.296h299.008l-28.672 55.296q-14.336 26.624-43.008 26.624h-155.648q-28.672 0-43.008-26.624zM559.104 167.424v102.4h440.32q-6.144-90.112-10.24-169.984-6.144-86.016-92.16-86.016h-768q-92.16 0-92.16 86.016l-10.24 169.984h440.32v-102.4h92.16z" />
<glyph unicode="&#xe8bc;" d="M921.6 755.2q43.008 0 72.704-30.72t29.696-71.68v-563.2q0-43.008-29.696-72.704t-72.704-29.696h-51.2v768h51.2zM0 652.8q0 40.96 30.72 71.68t71.68 30.72h51.2v-768h-51.2q-40.96 0-71.68 29.696t-30.72 72.704v563.2zM686.080 861.696v-106.496h112.64v-768h-573.44v768h112.64v106.496q100.352 47.104 174.080 47.104t174.080-47.104zM624.64 755.2v67.584q-53.248 24.576-112.64 24.576-55.296 0-112.64-24.576v-67.584h225.28z" />
<glyph unicode="&#xe8bd;" d="M112.64 560.64q47.104 0 79.872-32.768t32.768-79.872q0-45.056-32.768-78.848t-79.872-33.792-79.872 33.792-32.768 78.848q0 47.104 32.768 79.872t79.872 32.768z" horiz-adv-x="225" />
<glyph unicode="&#xe8be;" d="M112.64 560.64q47.104 0 79.872-32.768t32.768-79.872q0-45.056-32.768-78.848t-79.872-33.792-79.872 32.768-32.768 79.872 32.768 79.872 79.872 32.768zM471.040 560.64q47.104 0 79.872-32.768t32.768-79.872q0-45.056-33.792-78.848t-78.848-33.792q-47.104 0-79.872 32.768t-32.768 79.872 32.768 79.872 79.872 32.768z" horiz-adv-x="584" />
<glyph unicode="&#xe8bf;" d="M112.64 560.64q47.104 0 79.872-32.768t32.768-79.872q0-45.056-32.768-78.848t-79.872-33.792-79.872 33.792-32.768 78.848q0 47.104 32.768 79.872t79.872 32.768zM471.040 560.64q47.104 0 79.872-32.768t32.768-79.872q0-45.056-33.792-78.848t-78.848-33.792-78.848 33.792-33.792 78.848q0 47.104 32.768 79.872t79.872 32.768zM829.44 560.64q47.104 0 79.872-32.768t32.768-79.872q0-45.056-32.768-78.848t-79.872-33.792-79.872 33.792-32.768 78.848q0 47.104 32.768 79.872t79.872 32.768z" horiz-adv-x="942" />
<glyph unicode="&#xe8c0;" d="M120.832 263.68q38.912 34.816 87.040 29.696t89.088-46.080q43.008-40.96 49.152-89.088t-30.72-84.992q-88.064-86.016-233.472-104.448-86.016-12.288-81.92 14.336 0 4.096 6.144 10.24 53.248 61.44 65.536 148.48t49.152 121.856zM980.992 925.184q26.624-26.624-151.552-253.952t-299.008-346.112q-38.912-38.912-126.976-106.496-8.192-6.144-16.384 8.192-18.432 34.816-49.152 65.536-32.768 32.768-67.584 49.152-16.384 6.144-8.192 16.384 65.536 86.016 106.496 124.928 120.832 118.784 352.256 293.888t260.096 148.48z" horiz-adv-x="985" />
<glyph unicode="&#xe8c1;" d="M530.432 44.544l16.384 167.936 266.24-20.48-16.384-169.984q-4.096-28.672-32.768-24.576l-204.8 16.384q-28.672 0-28.672 30.72zM28.672 192l264.192 20.48 16.384-167.936q2.048-12.288-6.144-21.504t-22.528-9.216l-202.752-16.384q-12.288-2.048-22.528 6.144t-10.24 18.432zM2.048 468.48q-2.048 12.288-2.048 34.816 0 163.84 122.88 279.552t296.96 115.712 296.96-115.712 122.88-279.552q0-22.528-2.048-34.816l-16.384-174.080-264.192 22.528 16.384 174.080v12.288q0 59.392-45.056 101.376t-108.544 41.984-108.544-41.984-45.056-101.376v-12.288l16.384-174.080-264.192-22.528z" horiz-adv-x="840" />
<glyph unicode="&#xe8c2;" d="M815.104 673.28q86.016 0 147.456-54.272t61.44-171.008q0-114.688-61.44-169.984t-147.456-55.296q-79.872 0-160.768 40.96t-142.336 108.544q-59.392-67.584-140.288-108.544t-160.768-40.96q-88.064 0-149.504 55.296t-61.44 169.984q0 116.736 61.44 171.008t149.504 54.272q79.872 0 160.768-39.936t140.288-107.52q59.392 67.584 141.312 107.52t161.792 39.936zM210.944 312.832q61.44 0 130.048 37.888t115.712 97.28q-47.104 59.392-114.688 97.28t-131.072 37.888q-116.736 0-116.736-135.168t116.736-135.168zM815.104 312.832q116.736 0 116.736 135.168t-116.736 135.168q-63.488 0-132.096-37.888t-113.664-97.28q45.056-59.392 113.664-97.28t132.096-37.888z" />
<glyph unicode="&#xe8c3;" d="M923.648 806.4q43.008 0 72.704-29.696t29.696-72.704v-512q0-40.96-29.696-71.68t-72.704-30.72h-489.472q-38.912 0-71.68 28.672l-348.16 303.104q-28.672 26.624 0 55.296l348.16 303.104q30.72 26.624 71.68 26.624h489.472zM780.288 243.2l73.728 75.776-131.072 129.024 131.072 131.072-73.728 73.728-131.072-129.024-131.072 129.024-73.728-73.728 131.072-131.072-131.072-129.024 73.728-75.776 131.072 131.072z" horiz-adv-x="1026" />
<glyph unicode="&#xe8c4;" d="M376.832 878.080v-376.832h-376.832q18.432 149.504 123.904 254.976t252.928 121.856zM485.376 878.080q159.744-20.48 267.264-142.336t107.52-285.696q0-178.176-125.952-305.152t-306.176-126.976q-163.84 0-284.672 107.52t-143.36 269.312h434.176q20.48 0 35.84 14.336t15.36 36.864v432.128z" horiz-adv-x="860" />
<glyph unicode="&#xe8c5;" d="M34.816 380.416q-43.008 10.24-32.768 57.344 10.24 43.008 55.296 32.768l100.352-24.576-53.248-81.92zM946.176 368.128q14.336 12.288 33.792 11.264t31.744-15.36q32.768-32.768-2.048-65.536l-258.048-231.424q-12.288-12.288-30.72-12.288-14.336 0-28.672 10.24l-292.864 225.28-55.296 14.336 51.2 81.92 36.864-8.192q12.288-4.096 16.384-8.192l270.336-208.896zM444.416 593.408l-358.4-563.2q-12.288-22.528-38.912-22.528-12.288 0-24.576 8.192-16.384 10.24-20.48 29.696t6.144 33.792l382.976 602.112q8.192 16.384 28.672 20.48 18.432 6.144 36.864-6.144l251.904-159.744 231.424 333.824q10.24 16.384 28.672 19.456t34.816-9.216q38.912-24.576 12.288-63.488l-258.048-370.688q-24.576-36.864-63.488-12.288z" horiz-adv-x="1027" />
<glyph unicode="&#xe8c6;" d="M768 908.8q22.528 0 36.864-15.36t14.336-35.84v-870.4h-204.8v870.4q0 51.2 40.96 51.2h112.64zM460.8 601.6q22.528 0 36.864-15.36t14.336-35.84v-563.2h-204.8v563.2q0 51.2 40.96 51.2h112.64zM153.6 294.4q22.528 0 36.864-15.36t14.336-35.84v-256h-204.8v256q0 51.2 40.96 51.2h112.64z" horiz-adv-x="819" />
<glyph unicode="&#xe8c7;" d="M987.136 839.168q16.384 22.528 16.384-4.096v-786.432h-987.136q-12.288 0-15.36 7.168t5.12 17.408l235.52 294.912q20.48 22.528 40.96 2.048l75.776-67.584q10.24-8.192 21.504-7.168t17.408 11.264l161.792 243.712q16.384 26.624 38.912 4.096l114.688-106.496q20.48-20.48 38.912 4.096z" horiz-adv-x="1004" />
<glyph unicode="&#xe8c8;" d="M788.48 683.52q98.304 0 166.912-68.608t68.608-166.912q0-96.256-68.608-165.888t-166.912-69.632h-552.96q-96.256 0-165.888 69.632t-69.632 165.888q0 98.304 69.632 166.912t165.888 68.608q98.304 0 166.912-68.608t68.608-166.912q0-73.728-40.96-133.12h163.84q-40.96 65.536-40.96 133.12 0 98.304 69.632 166.912t165.888 68.608zM102.4 448q0-53.248 38.912-93.184t94.208-39.936 94.208 39.936 38.912 93.184q0 55.296-38.912 94.208t-94.208 38.912-94.208-38.912-38.912-94.208zM788.48 314.88q55.296 0 94.208 39.936t38.912 93.184q0 55.296-38.912 94.208t-94.208 38.912-94.208-38.912-38.912-94.208q0-53.248 38.912-93.184t94.208-39.936z" />
</font>
</defs>
</svg>
